  0
SECTION
  2
HEADER
  9
$ACADVER
  1
AC1015
  9
$ACADMAINTVER
 70
     6
  9
$DWGCODEPAGE
  3
ANSI_1252
  9
$INSBASE
 10
0.0
 20
0.0
 30
0.0
  9
$EXTMIN
 10
0.0
 20
0.0
 30
0.0
  9
$EXTMAX
 10
210.0000000000001
 20
297.0000000000001
 30
0.0
  9
$LIMMIN
 10
0.0
 20
0.0
  9
$LIMMAX
 10
12.0
 20
9.0
  9
$ORTHOMODE
 70
     0
  9
$REGENMODE
 70
     1
  9
$FILLMODE
 70
     1
  9
$QTEXTMODE
 70
     0
  9
$MIRRTEXT
 70
     1
  9
$LTSCALE
 40
1.0
  9
$ATTMODE
 70
     1
  9
$TEXTSIZE
 40
0.2
  9
$TRACEWID
 40
0.05
  9
$TEXTSTYLE
  7
Standard
  9
$CLAYER
  8
0
  9
$CELTYPE
  6
ByLayer
  9
$CECOLOR
 62
   256
  9
$CELTSCALE
 40
1.0
  9
$DISPSILH
 70
     0
  9
$DIMSCALE
 40
1.0
  9
$DIMASZ
 40
0.18
  9
$DIMEXO
 40
0.0625
  9
$DIMDLI
 40
0.38
  9
$DIMRND
 40
0.0
  9
$DIMDLE
 40
0.0
  9
$DIMEXE
 40
0.18
  9
$DIMTP
 40
0.0
  9
$DIMTM
 40
0.0
  9
$DIMTXT
 40
0.18
  9
$DIMCEN
 40
0.09
  9
$DIMTSZ
 40
0.0
  9
$DIMTOL
 70
     0
  9
$DIMLIM
 70
     0
  9
$DIMTIH
 70
     1
  9
$DIMTOH
 70
     1
  9
$DIMSE1
 70
     0
  9
$DIMSE2
 70
     0
  9
$DIMTAD
 70
     0
  9
$DIMZIN
 70
     0
  9
$DIMBLK
  1

  9
$DIMASO
 70
     1
  9
$DIMSHO
 70
     1
  9
$DIMPOST
  1

  9
$DIMAPOST
  1

  9
$DIMALT
 70
     0
  9
$DIMALTD
 70
     2
  9
$DIMALTF
 40
25.4
  9
$DIMLFAC
 40
1.0
  9
$DIMTOFL
 70
     0
  9
$DIMTVP
 40
0.0
  9
$DIMTIX
 70
     0
  9
$DIMSOXD
 70
     0
  9
$DIMSAH
 70
     0
  9
$DIMBLK1
  1

  9
$DIMBLK2
  1

  9
$DIMSTYLE
  2
Standard
  9
$DIMCLRD
 70
     0
  9
$DIMCLRE
 70
     0
  9
$DIMCLRT
 70
     0
  9
$DIMTFAC
 40
1.0
  9
$DIMGAP
 40
0.09
  9
$DIMJUST
 70
     0
  9
$DIMSD1
 70
     0
  9
$DIMSD2
 70
     0
  9
$DIMTOLJ
 70
     1
  9
$DIMTZIN
 70
     0
  9
$DIMALTZ
 70
     0
  9
$DIMALTTZ
 70
     0
  9
$DIMUPT
 70
     0
  9
$DIMDEC
 70
     4
  9
$DIMTDEC
 70
     4
  9
$DIMALTU
 70
     2
  9
$DIMALTTD
 70
     2
  9
$DIMTXSTY
  7
Standard
  9
$DIMAUNIT
 70
     0
  9
$DIMADEC
 70
     0
  9
$DIMALTRND
 40
0.0
  9
$DIMAZIN
 70
     0
  9
$DIMDSEP
 70
    46
  9
$DIMATFIT
 70
     3
  9
$DIMFRAC
 70
     0
  9
$DIMLDRBLK
  1

  9
$DIMLUNIT
 70
     2
  9
$DIMLWD
 70
    -2
  9
$DIMLWE
 70
    -2
  9
$DIMTMOVE
 70
     0
  9
$LUNITS
 70
     2
  9
$LUPREC
 70
     4
  9
$SKETCHINC
 40
0.1
  9
$FILLETRAD
 40
0.5
  9
$AUNITS
 70
     0
  9
$AUPREC
 70
     0
  9
$MENU
  1
.
  9
$ELEVATION
 40
0.0
  9
$PELEVATION
 40
0.0
  9
$THICKNESS
 40
0.0
  9
$LIMCHECK
 70
     0
  9
$CHAMFERA
 40
0.5
  9
$CHAMFERB
 40
0.5
  9
$CHAMFERC
 40
1.0
  9
$CHAMFERD
 40
0.0
  9
$SKPOLY
 70
     0
  9
$TDCREATE
 40
2456997.491330289
  9
$TDUCREATE
 40
2456997.449663623
  9
$TDUPDATE
 40
2456997.491330475
  9
$TDUUPDATE
 40
2456997.449663808
  9
$TDINDWG
 40
0.0000000116
  9
$TDUSRTIMER
 40
0.0000000116
  9
$USRTIMER
 70
     1
  9
$ANGBASE
 50
0.0
  9
$ANGDIR
 70
     0
  9
$PDMODE
 70
     0
  9
$PDSIZE
 40
0.0
  9
$PLINEWID
 40
0.0
  9
$SPLFRAME
 70
     0
  9
$SPLINETYPE
 70
     6
  9
$SPLINESEGS
 70
     8
  9
$HANDSEED
  5
419
  9
$SURFTAB1
 70
     6
  9
$SURFTAB2
 70
     6
  9
$SURFTYPE
 70
     6
  9
$SURFU
 70
     6
  9
$SURFV
 70
     6
  9
$UCSBASE
  2

  9
$UCSNAME
  2

  9
$UCSORG
 10
0.0
 20
0.0
 30
0.0
  9
$UCSXDIR
 10
1.0
 20
0.0
 30
0.0
  9
$UCSYDIR
 10
0.0
 20
1.0
 30
0.0
  9
$UCSORTHOREF
  2

  9
$UCSORTHOVIEW
 70
     0
  9
$UCSORGTOP
 10
0.0
 20
0.0
 30
0.0
  9
$UCSORGBOTTOM
 10
0.0
 20
0.0
 30
0.0
  9
$UCSORGLEFT
 10
0.0
 20
0.0
 30
0.0
  9
$UCSORGRIGHT
 10
0.0
 20
0.0
 30
0.0
  9
$UCSORGFRONT
 10
0.0
 20
0.0
 30
0.0
  9
$UCSORGBACK
 10
0.0
 20
0.0
 30
0.0
  9
$PUCSBASE
  2

  9
$PUCSNAME
  2

  9
$PUCSORG
 10
0.0
 20
0.0
 30
0.0
  9
$PUCSXDIR
 10
1.0
 20
0.0
 30
0.0
  9
$PUCSYDIR
 10
0.0
 20
1.0
 30
0.0
  9
$PUCSORTHOREF
  2

  9
$PUCSORTHOVIEW
 70
     0
  9
$PUCSORGTOP
 10
0.0
 20
0.0
 30
0.0
  9
$PUCSORGBOTTOM
 10
0.0
 20
0.0
 30
0.0
  9
$PUCSORGLEFT
 10
0.0
 20
0.0
 30
0.0
  9
$PUCSORGRIGHT
 10
0.0
 20
0.0
 30
0.0
  9
$PUCSORGFRONT
 10
0.0
 20
0.0
 30
0.0
  9
$PUCSORGBACK
 10
0.0
 20
0.0
 30
0.0
  9
$USERI1
 70
     0
  9
$USERI2
 70
     0
  9
$USERI3
 70
     0
  9
$USERI4
 70
     0
  9
$USERI5
 70
     0
  9
$USERR1
 40
18.1
  9
$USERR2
 40
0.0
  9
$USERR3
 40
0.0
  9
$USERR4
 40
0.0
  9
$USERR5
 40
0.0
  9
$WORLDVIEW
 70
     1
  9
$SHADEDGE
 70
     3
  9
$SHADEDIF
 70
    70
  9
$TILEMODE
 70
     1
  9
$MAXACTVP
 70
    64
  9
$PINSBASE
 10
0.0
 20
0.0
 30
0.0
  9
$PLIMCHECK
 70
     0
  9
$PEXTMIN
 10
1.00000000000000E+20
 20
1.00000000000000E+20
 30
1.00000000000000E+20
  9
$PEXTMAX
 10
-1.00000000000000E+20
 20
-1.00000000000000E+20
 30
-1.00000000000000E+20
  9
$PLIMMIN
 10
0.0
 20
0.0
  9
$PLIMMAX
 10
12.0
 20
9.0
  9
$UNITMODE
 70
     0
  9
$VISRETAIN
 70
     1
  9
$PLINEGEN
 70
     0
  9
$PSLTSCALE
 70
     1
  9
$TREEDEPTH
 70
  3020
  9
$CMLSTYLE
  2
Standard
  9
$CMLJUST
 70
     0
  9
$CMLSCALE
 40
1.0
  9
$PROXYGRAPHICS
 70
     1
  9
$MEASUREMENT
 70
     1
  9
$CELWEIGHT
370
    -1
  9
$ENDCAPS
280
     0
  9
$JOINSTYLE
280
     0
  9
$LWDISPLAY
290
     0
  9
$INSUNITS
 70
     4
  9
$HYPERLINKBASE
  1

  9
$STYLESHEET
  1

  9
$XEDIT
290
     1
  9
$CEPSNTYPE
380
     0
  9
$PSTYLEMODE
290
     1
  9
$FINGERPRINTGUID
  2
{CF44110D-082C-4212-8B0D-800E74286627}
  9
$VERSIONGUID
  2
{FAEB1C32-E019-11D5-929B-00C0DF256EC4}
  9
$EXTNAMES
290
     1
  9
$PSVPSCALE
 40
0.0
  9
$OLESTARTUP
290
     0
  0
ENDSEC
  0
SECTION
  2
CLASSES
  0
CLASS
  1
ACDBDICTIONARYWDFLT
  2
AcDbDictionaryWithDefault
  3
ObjectDBX Classes
 90
        0
280
     0
281
     0
  0
CLASS
  1
VISUALSTYLE
  2
AcDbVisualStyle
  3
ObjectDBX Classes
 90
     4095
280
     0
281
     0
  0
CLASS
  1
MATERIAL
  2
AcDbMaterial
  3
ObjectDBX Classes
 90
     1153
280
     0
281
     0
  0
CLASS
  1
DICTIONARYVAR
  2
AcDbDictionaryVar
  3
ObjectDBX Classes
 90
        0
280
     0
281
     0
  0
CLASS
  1
ACDBPLACEHOLDER
  2
AcDbPlaceHolder
  3
ObjectDBX Classes
 90
        0
280
     0
281
     0
  0
CLASS
  1
LAYOUT
  2
AcDbLayout
  3
ObjectDBX Classes
 90
        0
280
     0
281
     0
  0
ENDSEC
  0
SECTION
  2
TABLES
  0
TABLE
  2
VPORT
  5
8
330
0
100
AcDbSymbolTable
 70
     1
  0
VPORT
  5
29
330
8
100
AcDbSymbolTableRecord
100
AcDbViewportTableRecord
  2
*Active
 70
     0
 10
0.0
 20
0.0
 11
1.0
 21
1.0
 12
105.0000000000001
 22
148.5000000000001
 13
0.0
 23
0.0
 14
0.5
 24
0.5
 15
0.5
 25
0.5
 16
0.0
 26
0.0
 36
1.0
 17
0.0
 27
0.0
 37
0.0
 40
326.7000000000002
 41
1.60267857142857
 42
50.0
 43
0.0
 44
0.0
 50
0.0
 51
0.0
 71
     0
 72
   100
 73
     1
 74
     3
 75
     0
 76
     0
 77
     0
 78
     0
281
     0
 65
     1
110
0.0
120
0.0
130
0.0
111
1.0
121
0.0
131
0.0
112
0.0
122
1.0
132
0.0
 79
     0
146
0.0
  0
ENDTAB
  0
TABLE
  2
LTYPE
  5
5
330
0
100
AcDbSymbolTable
 70
     8
  0
LTYPE
  5
14
330
5
100
AcDbSymbolTableRecord
100
AcDbLinetypeTableRecord
  2
ByBlock
 70
     0
  3

 72
    65
 73
     0
 40
0.0
  0
LTYPE
  5
15
330
5
100
AcDbSymbolTableRecord
100
AcDbLinetypeTableRecord
  2
ByLayer
 70
     0
  3

 72
    65
 73
     0
 40
0.0
  0
LTYPE
  5
16
330
5
100
AcDbSymbolTableRecord
100
AcDbLinetypeTableRecord
  2
Continuous
 70
     0
  3
Solid line
 72
    65
 73
     0
 40
0.0
  0
LTYPE
  5
3F
330
5
100
AcDbSymbolTableRecord
100
AcDbLinetypeTableRecord
  2
DASHED
 70
     0
  3
Dashed
 72
    65
 73
     2
 40
15.0
 49
7.0
 74
     0
 49
-8.0
 74
     0
  0
LTYPE
  5
40
330
5
100
AcDbSymbolTableRecord
100
AcDbLinetypeTableRecord
  2
DOTTED
 70
     0
  3
Dotted
 72
    65
 73
     2
 40
1.0
 49
0.0
 74
     0
 49
-1.0
 74
     0
  0
LTYPE
  5
41
330
5
100
AcDbSymbolTableRecord
100
AcDbLinetypeTableRecord
  2
DOT_CENTER
 70
     0
  3
Dot_Center
 72
    65
 73
     4
 40
14.0
 49
12.0
 74
     0
 49
-1.0
 74
     0
 49
0.0
 74
     0
 49
-1.0
 74
     0
  0
LTYPE
  5
42
330
5
100
AcDbSymbolTableRecord
100
AcDbLinetypeTableRecord
  2
LONG_DASHED
 70
     0
  3
Long_Dashed
 72
    65
 73
     2
 40
15.0
 49
10.0
 74
     0
 49
-5.0
 74
     0
  0
LTYPE
  5
43
330
5
100
AcDbSymbolTableRecord
100
AcDbLinetypeTableRecord
  2
DASH_CENTER
 70
     0
  3
Dash_Center
 72
    65
 73
     4
 40
14.0
 49
11.0
 74
     0
 49
-1.0
 74
     0
 49
1.0
 74
     0
 49
-1.0
 74
     0
  0
LTYPE
  5
44
330
5
100
AcDbSymbolTableRecord
100
AcDbLinetypeTableRecord
  2
PHANTOM
 70
     0
  3
Phantom
 72
    65
 73
     6
 40
13.0
 49
10.0
 74
     0
 49
-1.0
 74
     0
 49
0.0
 74
     0
 49
-1.0
 74
     0
 49
0.0
 74
     0
 49
-1.0
 74
     0
  0
LTYPE
  5
45
330
5
100
AcDbSymbolTableRecord
100
AcDbLinetypeTableRecord
  2
CENTER_DASH_DASH
 70
     0
  3
Center_Dash_Dash
 72
    65
 73
     6
 40
14.0
 49
9.0
 74
     0
 49
-1.0
 74
     0
 49
1.0
 74
     0
 49
-1.0
 74
     0
 49
1.0
 74
     0
 49
-1.0
 74
     0
  0
ENDTAB
  0
TABLE
  2
LAYER
  5
2
330
0
100
AcDbSymbolTable
 70
     2
  0
LAYER
  5
10
330
2
100
AcDbSymbolTableRecord
100
AcDbLayerTableRecord
  2
0
 70
     0
 62
     7
  6
Continuous
370
    -3
390
F
  0
LAYER
  5
46
330
2
100
AcDbSymbolTableRecord
100
AcDbLayerTableRecord
  2
1
 70
     0
 62
     7
  6
Continuous
370
    -3
390
F
  0
ENDTAB
  0
TABLE
  2
STYLE
  5
3
330
0
100
AcDbSymbolTable
 70
     4
  0
STYLE
  5
11
330
3
100
AcDbSymbolTableRecord
100
AcDbTextStyleTableRecord
  2
Standard
 70
     0
 40
0.0
 41
1.0
 50
0.0
 71
     0
 42
0.2
  3
txt
  4

  0
STYLE
  5
9B
330
3
100
AcDbSymbolTableRecord
100
AcDbTextStyleTableRecord
  2
CONVERTER_11
 70
     0
 40
0.0
 41
1.2
 50
0.0
 71
     0
 42
0.2
  3
ARIAL.TTF
  4

  0
STYLE
  5
A4
330
3
100
AcDbSymbolTableRecord
100
AcDbTextStyleTableRecord
  2
CONVERTER_12
 70
     0
 40
0.0
 41
1.38
 50
0.0
 71
     0
 42
0.2
  3
ARIAL.TTF
  4

  0
STYLE
  5
3D2
330
3
100
AcDbSymbolTableRecord
100
AcDbTextStyleTableRecord
  2
CONVERTER_13
 70
     0
 40
0.0
 41
0.95
 50
0.0
 71
     0
 42
0.2
  3
simplex.shx
  4

  0
ENDTAB
  0
TABLE
  2
VIEW
  5
6
330
0
100
AcDbSymbolTable
 70
     0
  0
ENDTAB
  0
TABLE
  2
UCS
  5
7
330
0
100
AcDbSymbolTable
 70
     0
  0
ENDTAB
  0
TABLE
  2
APPID
  5
9
330
0
100
AcDbSymbolTable
 70
     1
  0
APPID
  5
12
330
9
100
AcDbSymbolTableRecord
100
AcDbRegAppTableRecord
  2
ACAD
 70
     0
  0
ENDTAB
  0
TABLE
  2
DIMSTYLE
  5
A
330
0
100
AcDbSymbolTable
 70
     4
100
AcDbDimStyleTable
  0
DIMSTYLE
105
27
330
A
100
AcDbSymbolTableRecord
100
AcDbDimStyleTableRecord
  2
Standard
 70
     0
178
     0
340
11
  0
DIMSTYLE
105
3D6
102
{ACAD_REACTORS
330
3D7
102
}
330
A
100
AcDbSymbolTableRecord
100
AcDbDimStyleTableRecord
  2
ME10_DIM_10
 70
     0
 41
3.0
 42
0.5
 44
1.0
 73
     0
 74
     0
 77
     1
 78
     8
140
3.0
147
2.0
172
     1
173
     1
174
     1
175
     1
176
     2
177
     2
271
     2
178
     4
271
     2
340
3D2
  0
DIMSTYLE
105
3E1
102
{ACAD_REACTORS
330
3E2
102
}
330
A
100
AcDbSymbolTableRecord
100
AcDbDimStyleTableRecord
  2
ME10_DIM_11
 70
     0
 41
3.0
 42
0.5
 44
1.0
 73
     0
 74
     0
 77
     1
 78
     8
140
3.0
147
2.0
172
     1
173
     1
174
     1
175
     1
176
     2
177
     2
271
     2
178
     4
271
     2
340
3D2
  0
DIMSTYLE
105
3EC
102
{ACAD_REACTORS
330
3ED
102
}
330
A
100
AcDbSymbolTableRecord
100
AcDbDimStyleTableRecord
  2
ME10_DIM_12
 70
     0
 41
3.0
 42
0.5
 44
1.0
 73
     0
 74
     0
 77
     1
 78
     8
140
3.0
147
2.0
172
     1
173
     1
174
     1
175
     1
176
     2
177
     2
271
     2
178
     4
271
     2
340
3D2
  0
ENDTAB
  0
TABLE
  2
BLOCK_RECORD
  5
1
330
0
100
AcDbSymbolTable
 70
     6
  0
BLOCK_RECORD
  5
1F
330
1
100
AcDbSymbolTableRecord
100
AcDbBlockTableRecord
  2
*Model_Space
340
22
  0
BLOCK_RECORD
  5
1B
330
1
100
AcDbSymbolTableRecord
100
AcDbBlockTableRecord
  2
*Paper_Space
340
1E
  0
BLOCK_RECORD
  5
23
330
1
100
AcDbSymbolTableRecord
100
AcDbBlockTableRecord
  2
*Paper_Space0
340
26
  0
BLOCK_RECORD
  5
47
330
1
100
AcDbSymbolTableRecord
100
AcDbBlockTableRecord
  2
_formato_A4
340
0
102
{BLKREFS
331
4B
102
}
  0
BLOCK_RECORD
  5
4A
330
1
100
AcDbSymbolTableRecord
100
AcDbBlockTableRecord
  2
A4
340
0
102
{BLKREFS
331
4E
102
}
  0
BLOCK_RECORD
  5
3CC
330
1
100
AcDbSymbolTableRecord
100
AcDbBlockTableRecord
  2
*D3
340
0
  0
BLOCK_RECORD
  5
3D8
330
1
100
AcDbSymbolTableRecord
100
AcDbBlockTableRecord
  2
*D4
340
0
  0
BLOCK_RECORD
  5
3E3
330
1
100
AcDbSymbolTableRecord
100
AcDbBlockTableRecord
  2
*D5
340
0
  0
ENDTAB
  0
ENDSEC
  0
SECTION
  2
BLOCKS
  0
BLOCK
  5
20
330
1F
100
AcDbEntity
  8
0
100
AcDbBlockBegin
  2
*Model_Space
 70
     0
 10
0.0
 20
0.0
 30
0.0
  3
*Model_Space
  1

  0
ENDBLK
  5
21
330
1F
100
AcDbEntity
  8
0
100
AcDbBlockEnd
  0
BLOCK
  5
1C
330
1B
100
AcDbEntity
 67
     1
  8
0
100
AcDbBlockBegin
  2
*Paper_Space
 70
     0
 10
0.0
 20
0.0
 30
0.0
  3
*Paper_Space
  1

  0
ENDBLK
  5
1D
330
1B
100
AcDbEntity
 67
     1
  8
0
100
AcDbBlockEnd
  0
BLOCK
  5
24
330
23
100
AcDbEntity
  8
0
100
AcDbBlockBegin
  2
*Paper_Space0
 70
     0
 10
0.0
 20
0.0
 30
0.0
  3
*Paper_Space0
  1

  0
ENDBLK
  5
25
330
23
100
AcDbEntity
  8
0
100
AcDbBlockEnd
  0
BLOCK
  5
48
330
47
100
AcDbEntity
  8
0
100
AcDbBlockBegin
  2
_formato_A4
 70
     0
 10
210.0000000000001
 20
0.0
 30
0.0
  3
_formato_A4
  1

  0
LINE
  5
4F
330
47
100
AcDbEntity
  8
1
  6
Continuous
 62
     7
100
AcDbLine
 10
21.00000000000011
 20
20.0
 30
0.0
 11
205.0000000000001
 21
20.0
 31
0.0
  0
LINE
  5
50
330
47
100
AcDbEntity
  8
1
  6
Continuous
 62
     7
100
AcDbLine
 10
21.00000000000011
 20
4.99999999999989
 30
0.0
 11
205.0000000000001
 21
4.99999999999989
 31
0.0
  0
LINE
  5
51
330
47
100
AcDbEntity
  8
1
  6
Continuous
 62
     7
100
AcDbLine
 10
46.00000000000023
 20
35.0
 30
0.0
 11
46.00000000000023
 21
40.0
 31
0.0
  0
LINE
  5
52
330
47
100
AcDbEntity
  8
1
  6
Continuous
 62
     7
100
AcDbLine
 10
28.00000000000011
 20
35.0
 30
0.0
 11
28.00000000000011
 21
40.0
 31
0.0
  0
LINE
  5
53
330
47
100
AcDbEntity
  8
1
  6
Continuous
 62
     7
100
AcDbLine
 10
21.00000000000011
 20
40.0
 30
0.0
 11
205.0000000000001
 21
40.0
 31
0.0
  0
LINE
  5
54
330
47
100
AcDbEntity
  8
1
  6
Continuous
 62
     7
100
AcDbLine
 10
46.00000000000023
 20
30.0
 30
0.0
 11
46.00000000000023
 21
35.0
 31
0.0
  0
LINE
  5
55
330
47
100
AcDbEntity
  8
1
  6
Continuous
 62
     7
100
AcDbLine
 10
28.00000000000011
 20
30.0
 30
0.0
 11
28.00000000000011
 21
35.0
 31
0.0
  0
LINE
  5
56
330
47
100
AcDbEntity
  8
1
  6
Continuous
 62
     7
100
AcDbLine
 10
21.00000000000011
 20
35.0
 30
0.0
 11
205.0000000000001
 21
35.0
 31
0.0
  0
LINE
  5
57
330
47
100
AcDbEntity
  8
1
  6
Continuous
 62
     7
100
AcDbLine
 10
46.00000000000023
 20
25.0
 30
0.0
 11
46.00000000000023
 21
30.0
 31
0.0
  0
LINE
  5
58
330
47
100
AcDbEntity
  8
1
  6
Continuous
 62
     7
100
AcDbLine
 10
28.00000000000011
 20
25.0
 30
0.0
 11
28.00000000000011
 21
30.0
 31
0.0
  0
LINE
  5
59
330
47
100
AcDbEntity
  8
1
  6
Continuous
 62
     7
100
AcDbLine
 10
21.00000000000011
 20
30.0
 30
0.0
 11
205.0000000000001
 21
30.0
 31
0.0
  0
LINE
  5
5A
330
47
100
AcDbEntity
  8
1
  6
Continuous
 62
     7
100
AcDbLine
 10
46.00000000000023
 20
20.0
 30
0.0
 11
46.00000000000023
 21
25.0
 31
0.0
  0
LINE
  5
5B
330
47
100
AcDbEntity
  8
1
  6
Continuous
 62
     7
100
AcDbLine
 10
28.00000000000011
 20
20.0
 30
0.0
 11
28.00000000000011
 21
25.0
 31
0.0
  0
LINE
  5
5C
330
47
100
AcDbEntity
  8
1
  6
Continuous
 62
     7
100
AcDbLine
 10
21.00000000000011
 20
25.0
 30
0.0
 11
205.0000000000001
 21
25.0
 31
0.0
  0
LINE
  5
5D
102
{ACAD_REACTORS
330
A6
102
}
330
47
100
AcDbEntity
  8
1
  6
Continuous
 62
     7
100
AcDbLine
 10
195.8428748399059
 20
10.55800208038033
 30
0.0
 11
194.5095415065727
 21
9.78877131114973
 31
0.0
  0
LINE
  5
5E
102
{ACAD_REACTORS
330
A6
102
}
330
47
100
AcDbEntity
  8
1
  6
Continuous
 62
     7
100
AcDbLine
 10
194.6763006887428
 20
10.65463653264794
 30
0.0
 11
195.5097265375796
 21
11.13545913774624
 31
0.0
  0
LINE
  5
5F
102
{ACAD_REACTORS
330
A6
102
}
330
47
100
AcDbEntity
  8
1
  6
Continuous
 62
     7
100
AcDbLine
 10
194.6763006887428
 20
12.16666666666663
 30
0.0
 11
194.6763006887428
 21
10.65463653264794
 31
0.0
  0
LINE
  5
60
102
{ACAD_REACTORS
330
A6
102
}
330
47
100
AcDbEntity
  8
1
  6
Continuous
 62
     7
100
AcDbLine
 10
195.6763006887428
 20
12.16666666666663
 30
0.0
 11
194.6763006887428
 21
12.16666666666663
 31
0.0
  0
LINE
  5
61
102
{ACAD_REACTORS
330
A6
102
}
330
47
100
AcDbEntity
  8
1
  6
Continuous
 62
     7
100
AcDbLine
 10
194.6763006887428
 20
12.83333333333326
 30
0.0
 11
195.6763006887428
 21
12.83333333333326
 31
0.0
  0
LINE
  5
62
102
{ACAD_REACTORS
330
A6
102
}
330
47
100
AcDbEntity
  8
1
  6
Continuous
 62
     7
100
AcDbLine
 10
194.6763006887428
 20
14.34536346735195
 30
0.0
 11
194.6763006887428
 21
12.83333333333326
 31
0.0
  0
LINE
  5
63
102
{ACAD_REACTORS
330
A6
102
}
330
47
100
AcDbEntity
  8
1
  6
Continuous
 62
     7
100
AcDbLine
 10
195.5097265375796
 20
13.86454086225376
 30
0.0
 11
194.6763006887428
 21
14.34536346735195
 31
0.0
  0
LINE
  5
64
102
{ACAD_REACTORS
330
A6
102
}
330
47
100
AcDbEntity
  8
1
  6
Continuous
 62
     7
100
AcDbLine
 10
194.5095415065727
 20
15.21122868885027
 30
0.0
 11
195.8428748399059
 21
14.44199791961944
 31
0.0
  0
LINE
  5
65
102
{ACAD_REACTORS
330
A7
102
}
330
47
100
AcDbEntity
  8
1
  6
Continuous
 62
     7
100
AcDbLine
 10
187.3429673554094
 20
10.84673060906323
 30
0.0
 11
187.3429673554094
 21
14.15326939093666
 31
0.0
  0
LINE
  5
66
102
{ACAD_REACTORS
330
A7
102
}
330
47
100
AcDbEntity
  8
1
  6
Continuous
 62
     7
100
AcDbLine
 10
188.0096340220761
 20
11.0392519172633
 30
0.0
 11
188.0096340220761
 21
10.84673060906323
 31
0.0
  0
LINE
  5
67
102
{ACAD_REACTORS
330
A7
102
}
330
47
100
AcDbEntity
  8
1
  6
Continuous
 62
     7
100
AcDbLine
 10
188.0096340220761
 20
14.15326939093666
 30
0.0
 11
188.0096340220761
 21
11.0392519172633
 31
0.0
  0
LINE
  5
68
102
{ACAD_REACTORS
330
A8
102
}
330
47
100
AcDbEntity
  8
1
  6
Continuous
 62
     7
100
AcDbLine
 10
191.1763932042462
 20
8.44261746499581
 30
0.0
 11
189.0098190530831
 21
9.69256409066691
 31
0.0
  0
LINE
  5
69
102
{ACAD_REACTORS
330
A8
102
}
330
47
100
AcDbEntity
  8
1
  6
Continuous
 62
     7
100
AcDbLine
 10
189.3429673554094
 20
10.2700211480327
 30
0.0
 11
191.5095415065727
 21
9.0200745223616
 31
0.0
  0
LINE
  5
6A
102
{ACAD_REACTORS
330
A8
102
}
330
47
100
AcDbEntity
  8
1
  6
Continuous
 62
     7
100
AcDbLine
 10
189.3429673554094
 20
14.92250016016737
 30
0.0
 11
189.3429673554094
 21
10.2700211480327
 31
0.0
  0
LINE
  5
6B
102
{ACAD_REACTORS
330
A8
102
}
330
47
100
AcDbEntity
  8
1
  6
Continuous
 62
     7
100
AcDbLine
 10
188.6763006887428
 20
10.27002114803258
 30
0.0
 11
188.6763006887428
 21
14.92250016016737
 31
0.0
  0
LINE
  5
6C
102
{ACAD_REACTORS
330
A9
102
}
330
47
100
AcDbEntity
  8
1
  6
Continuous
 62
     7
100
AcDbLine
 10
192.8485336717861
 20
15.86370041827229
 30
0.0
 11
191.6763006887428
 21
13.83333333333326
 31
0.0
  0
LINE
  5
6D
102
{ACAD_REACTORS
330
A9
102
}
330
47
100
AcDbEntity
  8
1
  6
Continuous
 62
     7
100
AcDbLine
 10
193.3429673554094
 20
9.3082690706018
 30
0.0
 11
193.3429673554094
 21
15.73121731203457
 31
0.0
  0
LINE
  5
6E
102
{ACAD_REACTORS
330
A9
102
}
330
47
100
AcDbEntity
  8
1
  6
Continuous
 62
     7
100
AcDbLine
 10
192.6763006887428
 20
12.5
 30
0.0
 11
192.6763006887428
 21
9.3082690706018
 31
0.0
  0
LINE
  5
6F
102
{ACAD_REACTORS
330
A9
102
}
330
47
100
AcDbEntity
  8
1
  6
Continuous
 62
     7
100
AcDbLine
 10
190.6763006887428
 20
10.84758507263291
 30
0.0
 11
190.6763006887428
 21
12.5
 31
0.0
  0
LINE
  5
70
102
{ACAD_REACTORS
330
A9
102
}
330
47
100
AcDbEntity
  8
1
  6
Continuous
 62
     7
100
AcDbLine
 10
190.0096340220761
 20
12.5
 30
0.0
 11
190.0096340220761
 21
10.84758507263291
 31
0.0
  0
LINE
  5
71
102
{ACAD_REACTORS
330
A9
102
}
330
47
100
AcDbEntity
  8
1
  6
Continuous
 62
     7
100
AcDbLine
 10
190.5040677056995
 20
15.86370041827229
 30
0.0
 11
191.6763006887428
 21
13.83333333333326
 31
0.0
  0
LINE
  5
72
102
{ACAD_REACTORS
330
A9
102
}
330
47
100
AcDbEntity
  8
1
  6
Continuous
 62
     7
100
AcDbLine
 10
190.0096340220761
 20
12.5
 30
0.0
 11
190.0096340220761
 21
15.73121731203457
 31
0.0
  0
LINE
  5
73
330
47
100
AcDbEntity
  8
1
  6
Continuous
 62
     7
100
AcDbLine
 10
191.6763006887428
 20
7.5
 30
0.0
 11
183.2598654136012
 21
12.35563573565855
 31
0.0
  0
LINE
  5
74
330
47
100
AcDbEntity
  8
1
  6
Continuous
 62
     7
100
AcDbLine
 10
200.0927359638843
 20
12.35563573565855
 30
0.0
 11
191.6763006887428
 21
7.5
 31
0.0
  0
LINE
  5
75
330
47
100
AcDbEntity
  8
1
  6
Continuous
 62
     7
100
AcDbLine
 10
191.6763006887428
 20
17.5
 30
0.0
 11
200.0927359638843
 21
12.64436426434133
 31
0.0
  0
LINE
  5
76
330
47
100
AcDbEntity
  8
1
  6
Continuous
 62
     7
100
AcDbLine
 10
183.2598654136012
 20
12.64436426434133
 30
0.0
 11
191.6763006887428
 21
17.5
 31
0.0
  0
LINE
  5
77
102
{ACAD_REACTORS
330
A9
102
}
330
47
100
AcDbEntity
  8
1
  6
Continuous
 62
     7
100
AcDbLine
 10
190.6763006887428
 20
14.23205080756884
 30
0.0
 11
190.6763006887428
 21
12.5
 31
0.0
  0
LINE
  5
78
102
{ACAD_REACTORS
330
A9
102
}
330
47
100
AcDbEntity
  8
1
  6
Continuous
 62
     7
100
AcDbLine
 10
191.5319631214453
 20
12.75
 30
0.0
 11
190.6763006887428
 21
14.23205080756884
 31
0.0
  0
LINE
  5
79
102
{ACAD_REACTORS
330
A9
102
}
330
47
100
AcDbEntity
  8
1
  6
Continuous
 62
     7
100
AcDbLine
 10
192.6763006887428
 20
14.23205080756884
 30
0.0
 11
191.8206382560402
 21
12.75
 31
0.0
  0
LINE
  5
7A
102
{ACAD_REACTORS
330
A9
102
}
330
47
100
AcDbEntity
  8
1
  6
Continuous
 62
     7
100
AcDbLine
 10
192.6763006887428
 20
12.5
 30
0.0
 11
192.6763006887428
 21
14.23205080756884
 31
0.0
  0
LINE
  5
7B
102
{ACAD_REACTORS
330
A6
102
}
330
47
100
AcDbEntity
  8
1
  6
Continuous
 62
     7
100
AcDbLine
 10
194.0096340220762
 20
10.07749983983263
 30
0.0
 11
194.0096340220762
 21
14.92250016016737
 31
0.0
  0
LINE
  5
7C
330
47
100
AcDbEntity
  8
1
  6
Continuous
 62
     7
100
AcDbLine
 10
21.00000000000011
 20
292.0000000000001
 30
0.0
 11
21.00000000000011
 21
4.99999999999989
 31
0.0
  0
LINE
  5
7D
330
47
100
AcDbEntity
  8
1
  6
Continuous
 62
     7
100
AcDbLine
 10
205.0000000000001
 20
292.0000000000001
 30
0.0
 11
21.00000000000011
 21
292.0000000000001
 31
0.0
  0
LINE
  5
7E
330
47
100
AcDbEntity
  8
1
  6
Continuous
 62
     7
100
AcDbLine
 10
205.0000000000001
 20
4.99999999999989
 30
0.0
 11
205.0000000000001
 21
292.0000000000001
 31
0.0
  0
LINE
  5
7F
330
47
100
AcDbEntity
  8
1
  6
Continuous
 62
     7
100
AcDbLine
 10
210.0000000000001
 20
297.0000000000001
 30
0.0
 11
0.0
 21
297.0000000000001
 31
0.0
  0
LINE
  5
80
330
47
100
AcDbEntity
  8
1
  6
Continuous
 62
     7
100
AcDbLine
 10
0.0
 20
297.0000000000001
 30
0.0
 11
0.0
 21
0.0
 31
0.0
  0
LINE
  5
81
330
47
100
AcDbEntity
  8
1
  6
Continuous
 62
     7
100
AcDbLine
 10
0.0
 20
0.0
 30
0.0
 11
210.0000000000001
 21
0.0
 31
0.0
  0
LINE
  5
82
330
47
100
AcDbEntity
  8
1
  6
Continuous
 62
     7
100
AcDbLine
 10
210.0000000000001
 20
0.0
 30
0.0
 11
210.0000000000001
 21
297.0000000000001
 31
0.0
  0
LINE
  5
83
330
47
100
AcDbEntity
  8
1
  6
Continuous
 62
     7
100
AcDbLine
 10
0.0
 20
148.4999999999998
 30
0.0
 11
15.0
 21
148.4999999999998
 31
0.0
  0
LINE
  5
84
330
47
100
AcDbEntity
  8
1
  6
Continuous
 62
     7
100
AcDbLine
 10
21.00000000000011
 20
9.99999999999989
 30
0.0
 11
51.00000000000011
 21
9.99999999999989
 31
0.0
  0
LINE
  5
85
330
47
100
AcDbEntity
  8
1
  6
Continuous
 62
     7
100
AcDbLine
 10
51.00000000000011
 20
20.0
 30
0.0
 11
51.00000000000011
 21
5.0
 31
0.0
  0
LINE
  5
86
330
47
100
AcDbEntity
  8
1
  6
Continuous
 62
     7
100
AcDbLine
 10
178.3526013774855
 20
20.0
 30
0.0
 11
178.3526013774855
 21
5.0
 31
0.0
  0
LINE
  5
87
330
47
100
AcDbEntity
  8
1
  6
Continuous
 62
     7
100
AcDbLine
 10
161.0000000000001
 20
20.0
 30
0.0
 11
161.0000000000001
 21
5.0
 31
0.0
  0
LINE
  5
88
330
47
100
AcDbEntity
  8
1
  6
Continuous
 62
     7
100
AcDbLine
 10
21.00000000000011
 20
20.0
 30
0.0
 11
21.00000000000011
 21
4.99999999999989
 31
0.0
  0
LINE
  5
89
330
47
100
AcDbEntity
  8
1
  6
Continuous
 62
     7
100
AcDbLine
 10
21.00000000000011
 20
14.99999999999989
 30
0.0
 11
51.00000000000011
 21
14.99999999999989
 31
0.0
  0
ARC
  5
8A
102
{ACAD_REACTORS
330
A6
102
}
330
47
100
AcDbEntity
  8
1
  6
Continuous
 62
     7
100
AcDbCircle
 10
195.6763006887428
 20
10.84673060906323
 30
0.0
 40
0.3333333333333172
100
AcDbArc
 50
299.9816393688334
 51
119.9816393688365
  0
ARC
  5
8B
102
{ACAD_REACTORS
330
A6
102
}
330
47
100
AcDbEntity
  8
1
  6
Continuous
 62
     7
100
AcDbCircle
 10
195.6763006887428
 20
12.5
 30
0.0
 40
0.3333333333333695
100
AcDbArc
 50
270.0
 51
90.0
  0
ARC
  5
8C
102
{ACAD_REACTORS
330
A6
102
}
330
47
100
AcDbEntity
  8
1
  6
Continuous
 62
     7
100
AcDbCircle
 10
195.6763006887428
 20
14.15326939093666
 30
0.0
 40
0.3333333333333613
100
AcDbArc
 50
240.018360631154
 51
60.01836063115638
  0
ARC
  5
8D
102
{ACAD_REACTORS
330
A7
102
}
330
47
100
AcDbEntity
  8
1
  6
Continuous
 62
     7
100
AcDbCircle
 10
187.6763006887428
 20
10.84673060906323
 30
0.0
 40
0.3333333333333997
100
AcDbArc
 50
180.0
 51
0.0
  0
ARC
  5
8E
102
{ACAD_REACTORS
330
A7
102
}
330
47
100
AcDbEntity
  8
1
  6
Continuous
 62
     7
100
AcDbCircle
 10
187.6763006887428
 20
14.15326939093666
 30
0.0
 40
0.3333333333333144
100
AcDbArc
 50
0.0
 51
180.0
  0
ARC
  5
8F
102
{ACAD_REACTORS
330
A8
102
}
330
47
100
AcDbEntity
  8
1
  6
Continuous
 62
     7
100
AcDbCircle
 10
191.3429673554094
 20
8.7313459936787
 30
0.0
 40
0.3333333333333567
100
AcDbArc
 50
240.0183606311536
 51
60.01836063113668
  0
ARC
  5
90
102
{ACAD_REACTORS
330
A8
102
}
330
47
100
AcDbEntity
  8
1
  6
Continuous
 62
     7
100
AcDbCircle
 10
189.0096340220761
 20
14.92250016016737
 30
0.0
 40
0.333333333333286
100
AcDbArc
 50
0.0
 51
180.0
  0
ARC
  5
91
102
{ACAD_REACTORS
330
A9
102
}
330
47
100
AcDbEntity
  8
1
  6
Continuous
 62
     7
100
AcDbCircle
 10
193.0780011429341
 20
15.73121731203457
 30
0.0
 40
0.2649662124752865
100
AcDbArc
 50
0.0
 51
149.9999999999716
  0
ARC
  5
92
102
{ACAD_REACTORS
330
A9
102
}
330
47
100
AcDbEntity
  8
1
  6
Continuous
 62
     7
100
AcDbCircle
 10
193.0096340220762
 20
9.3082690706018
 30
0.0
 40
0.3333333333333997
100
AcDbArc
 50
180.0
 51
0.0
  0
ARC
  5
93
102
{ACAD_REACTORS
330
A9
102
}
330
47
100
AcDbEntity
  8
1
  6
Continuous
 62
     7
100
AcDbCircle
 10
190.3429673554094
 20
10.84758507263291
 30
0.0
 40
0.333333333333286
100
AcDbArc
 50
180.0
 51
0.0
  0
ARC
  5
94
102
{ACAD_REACTORS
330
A9
102
}
330
47
100
AcDbEntity
  8
1
  6
Continuous
 62
     7
100
AcDbCircle
 10
190.2746002345514
 20
15.73121731203457
 30
0.0
 40
0.2649662124752854
100
AcDbArc
 50
30.00000000001921
 51
180.0
  0
ARC
  5
95
102
{ACAD_REACTORS
330
A6
102
}
330
47
100
AcDbEntity
  8
1
  6
Continuous
 62
     7
100
AcDbCircle
 10
194.3429673554094
 20
10.07749983983263
 30
0.0
 40
0.3333333333332007
100
AcDbArc
 50
180.0
 51
299.981639368863
  0
ARC
  5
96
102
{ACAD_REACTORS
330
A6
102
}
330
47
100
AcDbEntity
  8
1
  6
Continuous
 62
     7
100
AcDbCircle
 10
194.3429673554094
 20
14.92250016016737
 30
0.0
 40
0.3333333333334166
100
AcDbArc
 50
60.01836063113698
 51
180.0
  0
ARC
  5
97
330
47
100
AcDbEntity
  8
1
  6
Continuous
 62
     7
100
AcDbCircle
 10
200.0094488883027
 20
12.5
 30
0.0
 40
0.166666666666687
100
AcDbArc
 50
299.9816393688503
 51
60.01836063112923
  0
ARC
  5
98
330
47
100
AcDbEntity
  8
1
  6
Continuous
 62
     7
100
AcDbCircle
 10
183.3431524891829
 20
12.5
 30
0.0
 40
0.1666666666666265
100
AcDbArc
 50
119.9816393688962
 51
240.0183606311243
  0
ARC
  5
99
102
{ACAD_REACTORS
330
A8
102
}
330
47
100
AcDbEntity
  8
1
  6
Continuous
 62
     7
100
AcDbCircle
 10
189.3429673554094
 20
10.2700211480327
 30
0.0
 40
0.6666666666666003
100
AcDbArc
 50
180.0000000000104
 51
240.0183606311601
  0
ARC
  5
9A
102
{ACAD_REACTORS
330
A9
102
}
330
47
100
AcDbEntity
  8
1
  6
Continuous
 62
     7
100
AcDbCircle
 10
191.6763006887428
 20
12.83333333333326
 30
0.0
 40
0.166666666666709
100
AcDbArc
 50
209.9999999999622
 51
330.0000000000231
  0
MTEXT
  5
9C
330
47
100
AcDbEntity
  8
1
 62
     7
100
AcDbMText
 10
169.6763006887428
 20
10.06063942075605
 30
0.0
 40
4.5
 41
0.0
 71
     5
 72
     1
  1
1:1
  7
CONVERTER_11
 73
     1
 44
1.32052821128451
  0
MTEXT
  5
9D
330
47
100
AcDbEntity
  8
1
 62
     7
100
AcDbMText
 10
169.6763006887428
 20
16.26063942075598
 30
0.0
 40
3.0
 41
0.0
 71
     5
 72
     1
  1
Scale
  7
CONVERTER_11
 73
     1
 44
1.32052821128451
  0
MTEXT
  5
9E
330
47
100
AcDbEntity
  8
1
 62
     7
100
AcDbMText
 10
57.27630068874282
 20
12.5
 30
0.0
 40
4.5
 41
0.0
 71
     4
 72
     1
  1
CX 01 J8F\PFemale modular, RJ45 Cat.6
  7
CONVERTER_11
 73
     1
 44
0.90036014405762
  0
MTEXT
  5
9F
330
47
100
AcDbEntity
  8
1
 62
     7
100
AcDbMText
 10
32.60000000000014
 20
7.49999999999989
 30
0.0
 40
3.0
 41
0.0
 71
     4
 72
     1
  1
Radice
  7
CONVERTER_11
 73
     1
 44
1.32052821128451
  0
MTEXT
  5
A0
330
47
100
AcDbEntity
  8
1
 62
     7
100
AcDbMText
 10
22.00000000000011
 20
7.49999999999989
 30
0.0
 40
3.0
 41
0.0
 71
     4
 72
     1
  1
Sign.
  7
CONVERTER_11
 73
     1
 44
1.32052821128451
  0
MTEXT
  5
A1
330
47
100
AcDbEntity
  8
1
 62
     7
100
AcDbMText
 10
32.60000000000014
 20
12.49999999999989
 30
0.0
 40
3.0
 41
0.0
 71
     4
 72
     1
  1
27/01/14
  7
CONVERTER_11
 73
     1
 44
1.32052821128451
  0
MTEXT
  5
A2
330
47
100
AcDbEntity
  8
1
 62
     7
100
AcDbMText
 10
22.00000000000011
 20
12.49999999999989
 30
0.0
 40
3.0
 41
0.0
 71
     4
 72
     1
  1
Date
  7
CONVERTER_11
 73
     1
 44
1.32052821128451
  0
MTEXT
  5
A3
330
47
100
AcDbEntity
  8
1
 62
     7
100
AcDbMText
 10
16.0
 20
151.4999999999998
 30
0.0
 40
4.0
 41
0.0
 71
     5
 72
     1
  1
Diritti riservati      All rights reserved
  7
CONVERTER_11
 11
0.0
 21
1.0
 31
0.0
 73
     1
 44
1.32052821128451
  0
MTEXT
  5
A5
330
47
100
AcDbEntity
  8
1
 62
     7
100
AcDbMText
 10
36.00000000000011
 20
17.49999999999994
 30
0.0
 40
2.5
 41
0.0
 71
     5
 72
     1
  1
dimensions in mm
  7
CONVERTER_12
 73
     1
 44
0.60024009603842
  0
HATCH
  5
A6
330
47
100
AcDbEntity
  8
1
  6
Continuous
 62
     7
100
AcDbHatch
 10
0.0
 20
0.0
 30
0.0
210
0.0
220
0.0
230
1.0
  2
SOLID
 70
     1
 71
     1
 91
        1
 92
        1
 93
       14
 72
     2
 10
194.3429673554094
 20
14.92250016016737
 40
0.3333333333334166
 50
60.01836063113698
 51
180.0
 73
     1
 72
     1
 10
194.0096340220762
 20
14.92250016016737
 11
194.0096340220762
 21
10.07749983983263
 72
     2
 10
194.3429673554094
 20
10.07749983983263
 40
0.3333333333332007
 50
180.0
 51
299.981639368863
 73
     1
 72
     1
 10
194.5095415065727
 20
9.78877131114973
 11
195.8428748399059
 21
10.55800208038033
 72
     2
 10
195.6763006887428
 20
10.84673060906323
 40
0.3333333333333172
 50
299.9816393688334
 51
479.9816393688365
 73
     1
 72
     1
 10
195.5097265375796
 20
11.13545913774624
 11
194.6763006887428
 21
10.65463653264794
 72
     1
 10
194.6763006887428
 20
10.65463653264794
 11
194.6763006887428
 21
12.16666666666663
 72
     1
 10
194.6763006887428
 20
12.16666666666663
 11
195.6763006887428
 21
12.16666666666663
 72
     2
 10
195.6763006887428
 20
12.5
 40
0.3333333333333695
 50
270.0
 51
450.0
 73
     1
 72
     1
 10
195.6763006887428
 20
12.83333333333326
 11
194.6763006887428
 21
12.83333333333326
 72
     1
 10
194.6763006887428
 20
12.83333333333326
 11
194.6763006887428
 21
14.34536346735195
 72
     1
 10
194.6763006887428
 20
14.34536346735195
 11
195.5097265375796
 21
13.86454086225376
 72
     2
 10
195.6763006887428
 20
14.15326939093666
 40
0.3333333333333613
 50
240.018360631154
 51
420.0183606311564
 73
     1
 72
     1
 10
195.8428748399059
 20
14.44199791961944
 11
194.5095415065727
 21
15.21122868885027
 97
       14
330
8C
330
63
330
62
330
61
330
8B
330
60
330
5F
330
5E
330
8A
330
5D
330
95
330
7B
330
96
330
64
 75
     0
 76
     1
 98
        1
 10
0.0
 20
0.0
  0
HATCH
  5
A7
330
47
100
AcDbEntity
  8
1
  6
Continuous
 62
     7
100
AcDbHatch
 10
0.0
 20
0.0
 30
0.0
210
0.0
220
0.0
230
1.0
  2
SOLID
 70
     1
 71
     1
 91
        1
 92
        1
 93
        5
 72
     2
 10
187.6763006887428
 20
14.15326939093666
 40
0.3333333333333144
 50
0.0
 51
180.0
 73
     1
 72
     1
 10
187.3429673554094
 20
14.15326939093666
 11
187.3429673554094
 21
10.84673060906323
 72
     2
 10
187.6763006887428
 20
10.84673060906323
 40
0.3333333333333997
 50
180.0
 51
360.0
 73
     1
 72
     1
 10
188.0096340220761
 20
10.84673060906323
 11
188.0096340220761
 21
11.0392519172633
 72
     1
 10
188.0096340220761
 20
11.0392519172633
 11
188.0096340220761
 21
14.15326939093666
 97
        5
330
8E
330
65
330
8D
330
66
330
67
 75
     0
 76
     1
 98
        1
 10
0.0
 20
0.0
  0
HATCH
  5
A8
330
47
100
AcDbEntity
  8
1
  6
Continuous
 62
     7
100
AcDbHatch
 10
0.0
 20
0.0
 30
0.0
210
0.0
220
0.0
230
1.0
  2
SOLID
 70
     1
 71
     1
 91
        1
 92
        1
 93
        7
 72
     2
 10
189.0096340220761
 20
14.92250016016737
 40
0.333333333333286
 50
0.0
 51
180.0
 73
     1
 72
     1
 10
188.6763006887428
 20
14.92250016016737
 11
188.6763006887428
 21
10.27002114803258
 72
     2
 10
189.3429673554094
 20
10.2700211480327
 40
0.6666666666666003
 50
180.0000000000104
 51
240.0183606311601
 73
     1
 72
     1
 10
189.0098190530831
 20
9.692564090666906
 11
191.1763932042462
 21
8.442617464995806
 72
     2
 10
191.3429673554094
 20
8.731345993678701
 40
0.3333333333333567
 50
240.0183606311536
 51
420.0183606311367
 73
     1
 72
     1
 10
191.5095415065727
 20
9.020074522361597
 11
189.3429673554094
 21
10.2700211480327
 72
     1
 10
189.3429673554094
 20
10.2700211480327
 11
189.3429673554094
 21
14.92250016016737
 97
        7
330
90
330
6B
330
99
330
68
330
8F
330
69
330
6A
 75
     0
 76
     1
 98
        1
 10
0.0
 20
0.0
  0
HATCH
  5
A9
330
47
100
AcDbEntity
  8
1
  6
Continuous
 62
     7
100
AcDbHatch
 10
0.0
 20
0.0
 30
0.0
210
0.0
220
0.0
230
1.0
  2
SOLID
 70
     1
 71
     1
 91
        1
 92
        1
 93
       16
 72
     2
 10
193.0780011429341
 20
15.73121731203457
 40
0.2649662124752865
 50
210.0000000000284
 51
360.0
 73
     0
 72
     1
 10
193.3429673554094
 20
15.73121731203457
 11
193.3429673554094
 21
9.308269070601796
 72
     2
 10
193.0096340220762
 20
9.308269070601796
 40
0.3333333333333997
 50
0.0
 51
180.0
 73
     0
 72
     1
 10
192.6763006887428
 20
9.308269070601796
 11
192.6763006887428
 21
12.5
 72
     1
 10
192.6763006887428
 20
12.5
 11
192.6763006887428
 21
14.23205080756884
 72
     1
 10
192.6763006887428
 20
14.23205080756884
 11
191.8206382560402
 21
12.75
 72
     2
 10
191.6763006887428
 20
12.83333333333326
 40
0.166666666666709
 50
29.99999999997686
 51
150.0000000000378
 73
     0
 72
     1
 10
191.5319631214453
 20
12.75
 11
190.6763006887428
 21
14.23205080756884
 72
     1
 10
190.6763006887428
 20
14.23205080756884
 11
190.6763006887428
 21
12.5
 72
     1
 10
190.6763006887428
 20
12.5
 11
190.6763006887428
 21
10.84758507263291
 72
     2
 10
190.3429673554094
 20
10.84758507263291
 40
0.333333333333286
 50
0.0
 51
180.0
 73
     0
 72
     1
 10
190.0096340220761
 20
10.84758507263291
 11
190.0096340220761
 21
12.5
 72
     1
 10
190.0096340220761
 20
12.5
 11
190.0096340220761
 21
15.73121731203457
 72
     2
 10
190.2746002345514
 20
15.73121731203457
 40
0.2649662124752854
 50
180.0
 51
329.9999999999808
 73
     0
 72
     1
 10
190.5040677056995
 20
15.86370041827229
 11
191.6763006887428
 21
13.83333333333326
 72
     1
 10
191.6763006887428
 20
13.83333333333326
 11
192.8485336717861
 21
15.86370041827229
 97
       16
330
71
330
94
330
72
330
70
330
93
330
6F
330
77
330
78
330
9A
330
79
330
7A
330
6E
330
92
330
6D
330
91
330
6C
 75
     0
 76
     1
 98
        1
 10
0.0
 20
0.0
  0
ENDBLK
  5
49
330
47
100
AcDbEntity
  8
0
100
AcDbBlockEnd
  0
BLOCK
  5
4C
330
4A
100
AcDbEntity
  8
0
100
AcDbBlockBegin
  2
A4
 70
     0
 10
210.0000000000001
 20
0.0
 30
0.0
  3
A4
  1

  0
INSERT
  5
4B
330
4A
100
AcDbEntity
  8
1
100
AcDbBlockReference
  2
_formato_A4
 10
210.0000000000001
 20
0.0
 30
0.0
  0
ENDBLK
  5
4D
330
4A
100
AcDbEntity
  8
0
100
AcDbBlockEnd
  0
BLOCK
  5
3D4
330
3CC
100
AcDbEntity
  8
0
100
AcDbBlockBegin
  2
*D3
 70
     1
 10
0.0
 20
0.0
 30
0.0
  3
*D3
  1

  0
LINE
  5
3CD
330
3CC
100
AcDbEntity
  8
1
  6
Continuous
 62
     2
100
AcDbLine
 10
165.2164546856576
 20
148.662431140126
 30
0.0
 11
165.2164546856576
 21
184.6624311401262
 31
0.0
  0
LINE
  5
3CE
330
3CC
100
AcDbEntity
  8
1
  6
Continuous
 62
     2
100
AcDbLine
 10
141.5164546856573
 20
184.6624311401262
 30
0.0
 11
166.2164546856576
 21
184.6624311401262
 31
0.0
  0
LINE
  5
3CF
330
3CC
100
AcDbEntity
  8
1
  6
Continuous
 62
     2
100
AcDbLine
 10
150.7164546856576
 20
148.662431140126
 30
0.0
 11
166.2164546856576
 21
148.662431140126
 31
0.0
  0
SOLID
  5
3D0
330
3CC
100
AcDbEntity
  8
1
 62
     2
100
AcDbTrace
 10
164.8214971928954
 20
151.662431140126
 30
0.0
 11
165.6114121784198
 21
151.662431140126
 31
0.0
 12
165.2164546856576
 22
148.662431140126
 32
0.0
 13
165.2164546856576
 23
148.662431140126
 33
0.0
  0
SOLID
  5
3D1
330
3CC
100
AcDbEntity
  8
1
 62
     2
100
AcDbTrace
 10
165.6114121784198
 20
181.6624311401262
 30
0.0
 11
164.8214971928954
 21
181.6624311401262
 31
0.0
 12
165.2164546856576
 22
184.6624311401262
 32
0.0
 13
165.2164546856576
 23
184.6624311401262
 33
0.0
  0
MTEXT
  5
3D3
330
3CC
100
AcDbEntity
  8
1
 62
     4
100
AcDbMText
 10
163.2164546856576
 20
164.4124311401261
 30
0.0
 40
3.0
 41
0.0
 71
     7
 72
     1
  1
36
  7
CONVERTER_13
 11
0.0
 21
1.0
 31
0.0
 73
     1
 44
0.60024009603842
  0
ENDBLK
  5
3D5
330
3CC
100
AcDbEntity
  8
0
100
AcDbBlockEnd
  0
BLOCK
  5
3DF
330
3D8
100
AcDbEntity
  8
0
100
AcDbBlockBegin
  2
*D4
 70
     1
 10
0.0
 20
0.0
 30
0.0
  3
*D4
  1

  0
LINE
  5
3D9
330
3D8
100
AcDbEntity
  8
1
  6
Continuous
 62
     2
100
AcDbLine
 10
118.2164546856573
 20
133.6624311401261
 30
0.0
 11
148.2164546856577
 21
133.6624311401261
 31
0.0
  0
LINE
  5
3DA
330
3D8
100
AcDbEntity
  8
1
  6
Continuous
 62
     2
100
AcDbLine
 10
148.2164546856577
 20
148.162431140126
 30
0.0
 11
148.2164546856577
 21
132.6624311401261
 31
0.0
  0
LINE
  5
3DB
330
3D8
100
AcDbEntity
  8
1
  6
Continuous
 62
     2
100
AcDbLine
 10
118.2164546856573
 20
148.1624311401261
 30
0.0
 11
118.2164546856573
 21
132.6624311401261
 31
0.0
  0
SOLID
  5
3DC
330
3D8
100
AcDbEntity
  8
1
 62
     2
100
AcDbTrace
 10
121.2164546856573
 20
134.0573886328883
 30
0.0
 11
121.2164546856573
 21
133.2674736473639
 31
0.0
 12
118.2164546856573
 22
133.6624311401261
 32
0.0
 13
118.2164546856573
 23
133.6624311401261
 33
0.0
  0
SOLID
  5
3DD
330
3D8
100
AcDbEntity
  8
1
 62
     2
100
AcDbTrace
 10
145.2164546856577
 20
133.2674736473639
 30
0.0
 11
145.2164546856577
 21
134.0573886328883
 31
0.0
 12
148.2164546856577
 22
133.6624311401261
 32
0.0
 13
148.2164546856577
 23
133.6624311401261
 33
0.0
  0
MTEXT
  5
3DE
330
3D8
100
AcDbEntity
  8
1
 62
     4
100
AcDbMText
 10
130.9664546856575
 20
135.6624311401261
 30
0.0
 40
3.0
 41
0.0
 71
     7
 72
     1
  1
30
  7
CONVERTER_13
 11
0.9999999999970619
 21
2.424068405545306E-6
 31
0.0
 73
     1
 44
0.60024009603842
  0
ENDBLK
  5
3E0
330
3D8
100
AcDbEntity
  8
0
100
AcDbBlockEnd
  0
BLOCK
  5
3EA
330
3E3
100
AcDbEntity
  8
0
100
AcDbBlockBegin
  2
*D5
 70
     1
 10
0.0
 20
0.0
 30
0.0
  3
*D5
  1

  0
LINE
  5
3E4
330
3E3
100
AcDbEntity
  8
1
  6
Continuous
 62
     2
100
AcDbLine
 10
70.41645485312972
 20
133.6624311401261
 30
0.0
 11
85.11645485312977
 21
133.6624311401261
 31
0.0
  0
LINE
  5
3E5
330
3E3
100
AcDbEntity
  8
1
  6
Continuous
 62
     2
100
AcDbLine
 10
85.11645485312977
 20
148.1624311401261
 30
0.0
 11
85.11645485312977
 21
132.6624311401261
 31
0.0
  0
LINE
  5
3E6
330
3E3
100
AcDbEntity
  8
1
  6
Continuous
 62
     2
100
AcDbLine
 10
70.41645485312972
 20
148.1624311401261
 30
0.0
 11
70.41645485312972
 21
132.6624311401261
 31
0.0
  0
SOLID
  5
3E7
330
3E3
100
AcDbEntity
  8
1
 62
     2
100
AcDbTrace
 10
73.41645485312972
 20
134.0573886328883
 30
0.0
 11
73.41645485312972
 21
133.2674736473639
 31
0.0
 12
70.41645485312972
 22
133.6624311401261
 32
0.0
 13
70.41645485312972
 23
133.6624311401261
 33
0.0
  0
SOLID
  5
3E8
330
3E3
100
AcDbEntity
  8
1
 62
     2
100
AcDbTrace
 10
82.11645485312977
 20
133.2674736473639
 30
0.0
 11
82.11645485312977
 21
134.0573886328883
 31
0.0
 12
85.11645485312977
 22
133.6624311401261
 32
0.0
 13
85.11645485312977
 23
133.6624311401261
 33
0.0
  0
MTEXT
  5
3E9
330
3E3
100
AcDbEntity
  8
1
 62
     4
100
AcDbMText
 10
74.09145485312975
 20
135.9624311401261
 30
0.0
 40
3.0
 41
0.0
 71
     7
 72
     1
  1
14,7
  7
CONVERTER_13
 11
0.9999999999970619
 21
2.424068405545306E-6
 31
0.0
 73
     1
 44
0.60024009603842
  0
ENDBLK
  5
3EB
330
3E3
100
AcDbEntity
  8
0
100
AcDbBlockEnd
  0
ENDSEC
  0
SECTION
  2
ENTITIES
  0
INSERT
  5
4E
330
1F
100
AcDbEntity
  8
0
100
AcDbBlockReference
  2
A4
 10
210.0000000000001
 20
0.0
 30
0.0
  0
LINE
  5
AA
330
1F
100
AcDbEntity
  8
0
  6
Continuous
 62
     7
100
AcDbLine
 10
172.0806357161883
 20
246.1374206193846
 30
0.0
 11
159.7062670454237
 21
252.3246049547671
 31
0.0
  0
LINE
  5
AB
330
1F
100
AcDbEntity
  8
0
  6
Continuous
 62
     7
100
AcDbLine
 10
185.6661904883378
 20
257.8620509522245
 30
0.0
 11
174.3524819893529
 21
263.5189052017171
 31
0.0
  0
LINE
  5
AC
330
1F
100
AcDbEntity
  8
0
  6
Continuous
 62
     7
100
AcDbLine
 10
177.5253579313248
 20
267.7900219244348
 30
0.0
 11
187.566274224174
 21
262.7695637780102
 31
0.0
  0
LINE
  5
AD
330
1F
100
AcDbEntity
  8
0
  6
Continuous
 62
     7
100
AcDbLine
 10
187.5046681194228
 20
266.2766216483445
 30
0.0
 11
183.6862915010154
 21
268.1858099575483
 31
0.0
  0
LINE
  5
AE
330
1F
100
AcDbEntity
  8
0
  6
Continuous
 62
     7
100
AcDbLine
 10
187.5662742241739
 20
260.0848850262783
 30
0.0
 11
187.566274224174
 21
262.7695637780102
 31
0.0
  0
LINE
  5
AF
330
1F
100
AcDbEntity
  8
0
  6
Continuous
 62
     7
100
AcDbLine
 10
182.8271567618737
 20
267.7562425879774
 30
0.0
 11
180.1857792803313
 21
269.0769313287487
 31
0.0
  0
LINE
  5
B0
330
1F
100
AcDbEntity
  8
0
  6
Continuous
 62
     7
100
AcDbLine
 10
183.6862915010154
 20
268.1858099575483
 30
0.0
 11
182.8271567618737
 21
267.7562425879774
 31
0.0
  0
LINE
  5
B1
330
1F
100
AcDbEntity
  8
0
  6
Continuous
 62
     7
100
AcDbLine
 10
187.5046681194228
 20
266.2766216483445
 30
0.0
 11
184.0284133014641
 21
264.5384942393651
 31
0.0
  0
LINE
  5
B2
330
1F
100
AcDbEntity
  8
0
  6
Continuous
 62
     7
100
AcDbLine
 10
187.566274224174
 20
262.7695637780102
 30
0.0
 11
184.5964257431905
 21
261.2846395375184
 31
0.0
  0
LINE
  5
B3
330
1F
100
AcDbEntity
  8
0
  6
Continuous
 62
     7
100
AcDbLine
 10
160.9083485734409
 20
257.428977818455
 30
0.0
 11
159.7062670454237
 21
256.8279370544464
 31
0.0
  0
LINE
  5
B4
330
1F
100
AcDbEntity
  8
0
  6
Continuous
 62
     7
100
AcDbLine
 10
184.5964257431904
 20
258.5999607857866
 30
0.0
 11
174.5555094503413
 21
263.6204189322113
 31
0.0
  0
LINE
  5
B5
330
1F
100
AcDbEntity
  8
0
  6
Continuous
 62
     7
100
AcDbLine
 10
184.5964257431905
 20
261.2846395375184
 30
0.0
 11
174.5555094503413
 21
266.305097683943
 31
0.0
  0
LINE
  5
B6
330
1F
100
AcDbEntity
  8
0
  6
Continuous
 62
     7
100
AcDbLine
 10
188.494617613084
 20
265.0888265784863
 30
0.0
 11
187.5046681194228
 21
266.2766216483445
 31
0.0
  0
LINE
  5
B7
330
1F
100
AcDbEntity
  8
0
  6
Continuous
 62
     7
100
AcDbLine
 10
188.721036105599
 20
264.9756173322289
 30
0.0
 11
188.494617613084
 21
265.0888265784863
 31
0.0
  0
LINE
  5
B8
330
1F
100
AcDbEntity
  8
0
  6
Continuous
 62
     7
100
AcDbLine
 10
185.9376016106678
 20
263.5839000847633
 30
0.0
 11
189.4138564286265
 21
265.3220274937426
 31
0.0
  0
LINE
  5
B9
330
1F
100
AcDbEntity
  8
0
  6
Continuous
 62
     7
100
AcDbLine
 10
185.7111831181528
 20
263.6971093310207
 30
0.0
 11
188.494617613084
 21
265.0888265784863
 31
0.0
  0
LINE
  5
BA
330
1F
100
AcDbEntity
  8
0
  6
Continuous
 62
     7
100
AcDbLine
 10
190.1916738879316
 20
264.2808307987623
 30
0.0
 11
190.1916738879316
 21
263.4835498626576
 31
0.0
  0
LINE
  5
BB
330
1F
100
AcDbEntity
  8
0
  6
Continuous
 62
     7
100
AcDbLine
 10
190.7573593128809
 20
264.5636735112369
 30
0.0
 11
190.1916738879316
 21
264.2808307987623
 31
0.0
  0
LINE
  5
BC
330
1F
100
AcDbEntity
  8
0
  6
Continuous
 62
     7
100
AcDbLine
 10
190.7573593128809
 20
264.6502760516154
 30
0.0
 11
190.7573593128809
 21
264.5636735112369
 31
0.0
  0
LINE
  5
BD
330
1F
100
AcDbEntity
  8
0
  6
Continuous
 62
     7
100
AcDbLine
 10
189.3077904114485
 20
263.9254916008992
 30
0.0
 11
190.7573593128809
 21
264.6502760516154
 31
0.0
  0
LINE
  5
BE
330
1F
100
AcDbEntity
  8
0
  6
Continuous
 62
     7
100
AcDbLine
 10
190.7573593128809
 20
264.6502760516154
 30
0.0
 11
189.4138564286265
 21
265.3220274937426
 31
0.0
  0
LINE
  5
BF
330
1F
100
AcDbEntity
  8
0
  6
Continuous
 62
     7
100
AcDbLine
 10
161.1558359468564
 20
275.5660499038789
 30
0.0
 11
172.0806357161886
 21
270.1036500192127
 31
0.0
  0
LINE
  5
C0
330
1F
100
AcDbEntity
  8
0
  6
Continuous
 62
     7
100
AcDbLine
 10
169.3632998617901
 20
280.6897006345585
 30
0.0
 11
181.0255364981986
 21
274.8585823163542
 31
0.0
  0
LINE
  5
C1
330
1F
100
AcDbEntity
  8
0
  6
Continuous
 62
     7
100
AcDbLine
 10
162.7114708654671
 20
279.8079689783218
 30
0.0
 11
167.0955329088237
 21
282.0000000000001
 31
0.0
  0
LINE
  5
C2
330
1F
100
AcDbEntity
  8
0
  6
Continuous
 62
     7
100
AcDbLine
 10
169.2168532523833
 20
280.9393398282202
 30
0.0
 11
167.0955329088237
 21
282.0000000000001
 31
0.0
  0
LINE
  5
C3
330
1F
100
AcDbEntity
  8
0
  6
Continuous
 62
     7
100
AcDbLine
 10
169.2168532523833
 20
280.5857864376269
 30
0.0
 11
165.5398979902133
 21
278.7473088065419
 31
0.0
  0
LINE
  5
C4
330
1F
100
AcDbEntity
  8
0
  6
Continuous
 62
     2
100
AcDbLine
 10
169.2168532523833
 20
280.5857864376269
 30
0.0
 11
169.2168532523833
 21
278.8537356300583
 31
0.0
  0
LINE
  5
C5
330
1F
100
AcDbEntity
  8
0
  6
Continuous
 62
     7
100
AcDbLine
 10
169.3632998617901
 20
280.7625631329236
 30
0.0
 11
169.3632998617901
 21
279.030512325355
 31
0.0
  0
LINE
  5
C6
330
1F
100
AcDbEntity
  8
0
  6
Continuous
 62
     7
100
AcDbLine
 10
164.8327912090267
 20
278.7473088065419
 30
0.0
 11
162.7114708654671
 21
279.8079689783218
 31
0.0
  0
LINE
  5
C7
330
1F
100
AcDbEntity
  8
0
  6
Continuous
 62
     2
100
AcDbLine
 10
164.8327912090267
 20
277.0152579989733
 30
0.0
 11
164.8327912090267
 21
278.7473088065419
 31
0.0
  0
LINE
  5
C8
330
1F
100
AcDbEntity
  8
0
  6
Continuous
 62
     7
100
AcDbLine
 10
162.7114708654671
 20
278.0759181707532
 30
0.0
 11
164.8327912090267
 21
277.0152579989733
 31
0.0
  0
LINE
  5
C9
330
1F
100
AcDbEntity
  8
0
  6
Continuous
 62
     2
100
AcDbLine
 10
164.1256844278399
 20
249.8324143574225
 30
0.0
 11
164.1256844278399
 21
248.9488916872779
 31
0.0
  0
LINE
  5
CA
330
1F
100
AcDbEntity
  8
0
  6
Continuous
 62
     7
100
AcDbLine
 10
164.1256844278399
 20
248.9488916872779
 30
0.0
 11
162.0043640842803
 21
250.0095518590578
 31
0.0
  0
LINE
  5
CB
330
1F
100
AcDbEntity
  8
0
  6
Continuous
 62
     2
100
AcDbLine
 10
164.8327912090265
 20
249.4788609668292
 30
0.0
 11
164.8327912090264
 21
248.9488916872779
 31
0.0
  0
LINE
  5
CC
330
1F
100
AcDbEntity
  8
0
  6
Continuous
 62
     7
100
AcDbLine
 10
162.0043640842803
 20
250.0095518590578
 30
0.0
 11
162.0043640842805
 21
250.8930745292023
 31
0.0
  0
LINE
  5
CD
330
1F
100
AcDbEntity
  8
0
  6
Continuous
 62
     7
100
AcDbLine
 10
166.7773348572893
 20
253.1191980677565
 30
0.0
 11
166.7773348572893
 21
249.6550964526187
 31
0.0
  0
LINE
  5
CE
330
1F
100
AcDbEntity
  8
0
  6
Continuous
 62
     7
100
AcDbLine
 10
164.8327912090264
 20
248.9488916872779
 30
0.0
 11
165.3627604885778
 21
249.2138763270536
 31
0.0
  0
LINE
  5
CF
330
1F
100
AcDbEntity
  8
0
  6
Continuous
 62
     7
100
AcDbLine
 10
187.5662742241739
 20
260.0848850262783
 30
0.0
 11
184.5964257431904
 21
258.5999607857866
 31
0.0
  0
LINE
  5
D0
330
1F
100
AcDbEntity
  8
0
  6
Continuous
 62
     7
100
AcDbLine
 10
192.7372583002032
 20
252.8888852659752
 30
0.0
 11
187.9996428662533
 21
255.2576929829501
 31
0.0
  0
LINE
  5
D1
330
1F
100
AcDbEntity
  8
0
  6
Continuous
 62
     7
100
AcDbLine
 10
190.2623845660503
 20
256.3890638328486
 30
0.0
 11
187.9996428662533
 21
255.2576929829501
 31
0.0
  0
LINE
  5
D2
330
1F
100
AcDbEntity
  8
0
  6
Continuous
 62
     7
100
AcDbLine
 10
187.9996428662533
 20
255.2576929829501
 30
0.0
 11
187.9996428662533
 21
257.4482807792757
 31
0.0
  0
LINE
  5
D3
330
1F
100
AcDbEntity
  8
0
  6
Continuous
 62
     7
100
AcDbLine
 10
192.7372583002033
 20
259.8170884962506
 30
0.0
 11
187.9289321881347
 21
257.4129254402164
 31
0.0
  0
LINE
  5
D4
330
1F
100
AcDbEntity
  8
0
  6
Continuous
 62
     7
100
AcDbLine
 10
189.3164579552547
 20
258.1066883237764
 30
0.0
 11
192.7372583002033
 21
256.3962881513021
 31
0.0
  0
LINE
  5
D5
330
1F
100
AcDbEntity
  8
0
  6
Continuous
 62
     7
100
AcDbLine
 10
190.2623845660503
 20
257.6337250183786
 30
0.0
 11
190.2623845660503
 21
256.3890638328486
 31
0.0
  0
LINE
  5
D6
330
1F
100
AcDbEntity
  8
0
  6
Continuous
 62
     7
100
AcDbLine
 10
192.7372583002032
 20
249.4680849210266
 30
0.0
 11
187.9289321881347
 21
251.8722479770609
 31
0.0
  0
LINE
  5
D7
330
1F
100
AcDbEntity
  8
0
  6
Continuous
 62
     7
100
AcDbLine
 10
192.7372583002033
 20
256.3962881513021
 30
0.0
 11
192.7372583002033
 21
259.8170884962506
 31
0.0
  0
LINE
  5
D8
330
1F
100
AcDbEntity
  8
0
  6
Continuous
 62
     7
100
AcDbLine
 10
160.908348573441
 20
269.736892589475
 30
0.0
 11
159.7062670454239
 21
270.3379333534836
 31
0.0
  0
LINE
  5
D9
330
1F
100
AcDbEntity
  8
0
  6
Continuous
 62
     7
100
AcDbLine
 10
159.7062670454237
 20
256.8279370544464
 30
0.0
 11
160.9083485734409
 21
256.2268962904378
 31
0.0
  0
LINE
  5
DA
330
1F
100
AcDbEntity
  8
0
  6
Continuous
 62
     7
100
AcDbLine
 10
162.7114708654671
 20
278.0759181707532
 30
0.0
 11
162.7114708654671
 21
279.8079689783218
 31
0.0
  0
LINE
  5
DB
330
1F
100
AcDbEntity
  8
0
  6
Continuous
 62
     7
100
AcDbLine
 10
160.4133738266107
 20
273.6216866587846
 30
0.0
 11
160.4133738266107
 21
270.8646918248337
 31
0.0
  0
LINE
  5
DC
330
1F
100
AcDbEntity
  8
0
  6
Continuous
 62
     7
100
AcDbLine
 10
161.1558359468564
 20
277.2981007114478
 30
0.0
 11
161.1558359468564
 21
275.5660499038789
 31
0.0
  0
LINE
  5
DD
330
1F
100
AcDbEntity
  8
0
  6
Continuous
 62
     7
100
AcDbLine
 10
161.1558359468561
 20
251.5998205040509
 30
0.0
 11
161.1558359468561
 21
251.3173385979144
 31
0.0
  0
LINE
  5
DE
330
1F
100
AcDbEntity
  8
0
  6
Continuous
 62
     7
100
AcDbLine
 10
160.4133738266106
 20
256.301178583096
 30
0.0
 11
160.4133738266106
 21
253.5441837491449
 31
0.0
  0
LINE
  5
DF
330
1F
100
AcDbEntity
  8
0
  6
Continuous
 62
     7
100
AcDbLine
 10
159.7062670454239
 20
270.5111384342403
 30
0.0
 11
160.4133738266107
 21
270.8646918248337
 31
0.0
  0
LINE
  5
E0
330
1F
100
AcDbEntity
  8
0
  6
Continuous
 62
     7
100
AcDbLine
 10
159.7062670454239
 20
270.3379333534836
 30
0.0
 11
159.7062670454239
 21
270.5111384342403
 31
0.0
  0
LINE
  5
E1
330
1F
100
AcDbEntity
  8
0
  6
Continuous
 62
     7
100
AcDbLine
 10
160.908348573441
 20
269.736892589475
 30
0.0
 11
160.9083485734409
 21
256.2268962904378
 31
0.0
  0
LINE
  5
E2
330
1F
100
AcDbEntity
  8
0
  6
Continuous
 62
     7
100
AcDbLine
 10
159.7062670454237
 20
253.1906303585515
 30
0.0
 11
159.7062670454237
 21
252.3246049547671
 31
0.0
  0
LINE
  5
E3
330
1F
100
AcDbEntity
  8
0
  6
Continuous
 62
     7
100
AcDbLine
 10
159.7062670454239
 20
274.8412654531627
 30
0.0
 11
159.7062670454239
 21
273.975240049378
 31
0.0
  0
LINE
  5
E4
330
1F
100
AcDbEntity
  8
0
  6
Continuous
 62
     7
100
AcDbLine
 10
160.4133738266106
 20
253.5441837491449
 30
0.0
 11
159.7062670454237
 21
253.1906303585515
 31
0.0
  0
LINE
  5
E5
330
1F
100
AcDbEntity
  8
0
  6
Continuous
 62
     7
100
AcDbLine
 10
159.7062670454237
 20
256.6547319736894
 30
0.0
 11
159.7062670454237
 21
256.8279370544464
 31
0.0
  0
LINE
  5
E6
330
1F
100
AcDbEntity
  8
0
  6
Continuous
 62
     7
100
AcDbLine
 10
173.8484026691548
 20
269.502248448866
 30
0.0
 11
184.242872352597
 21
274.6994832905872
 31
0.0
  0
LINE
  5
E7
330
1F
100
AcDbEntity
  8
0
  6
Continuous
 62
     7
100
AcDbLine
 10
184.242872352597
 20
274.6994832905872
 30
0.0
 11
182.4751053996308
 21
275.5833667670703
 31
0.0
  0
LINE
  5
E8
330
1F
100
AcDbEntity
  8
0
  6
Continuous
 62
     7
100
AcDbLine
 10
184.5964257431905
 20
261.2846395375184
 30
0.0
 11
184.5964257431904
 21
258.5999607857866
 31
0.0
  0
LINE
  5
E9
330
1F
100
AcDbEntity
  8
0
  6
Continuous
 62
     7
100
AcDbLine
 10
182.8271567618737
 20
270.3976200695199
 30
0.0
 11
182.8271567618737
 21
267.7562425879774
 31
0.0
  0
LINE
  5
EA
330
1F
100
AcDbEntity
  8
0
  6
Continuous
 62
     7
100
AcDbLine
 10
184.242872352597
 20
274.6994832905872
 30
0.0
 11
184.242872352597
 21
267.9075195317574
 31
0.0
  0
LINE
  5
EB
330
1F
100
AcDbEntity
  8
0
  6
Continuous
 62
     7
100
AcDbLine
 10
182.4751053996308
 20
275.5833667670703
 30
0.0
 11
181.0255364981986
 21
274.8585823163542
 31
0.0
  0
LINE
  5
EC
330
1F
100
AcDbEntity
  8
0
  6
Continuous
 62
     7
100
AcDbLine
 10
178.7259374309917
 20
268.3470104040789
 30
0.0
 11
182.8271567618737
 21
270.3976200695199
 31
0.0
  0
LINE
  5
ED
330
1F
100
AcDbEntity
  8
0
  6
Continuous
 62
     7
100
AcDbLine
 10
174.3524819893529
 20
263.5189052017171
 30
0.0
 11
174.3524819893529
 21
250.0089089026798
 31
0.0
  0
LINE
  5
EE
330
1F
100
AcDbEntity
  8
0
  6
Continuous
 62
     7
100
AcDbLine
 10
173.8484026691548
 20
243.5214863353325
 30
0.0
 11
173.8484026691548
 21
269.502248448866
 31
0.0
  0
LINE
  5
EF
330
1F
100
AcDbEntity
  8
0
  6
Continuous
 62
     7
100
AcDbLine
 10
161.1558359468561
 20
251.3173385979144
 30
0.0
 11
172.0806357161883
 21
245.8549387132483
 31
0.0
  0
LINE
  5
F0
330
1F
100
AcDbEntity
  8
0
  6
Continuous
 62
     7
100
AcDbLine
 10
166.7773348572893
 20
249.6550964526187
 30
0.0
 11
159.7062670454237
 21
253.1906303585515
 31
0.0
  0
LINE
  5
F1
330
1F
100
AcDbEntity
  8
0
  6
Continuous
 62
     7
100
AcDbLine
 10
160.4133738266106
 20
253.5441837491449
 30
0.0
 11
166.7773348572893
 21
250.3622032338055
 31
0.0
  0
LINE
  5
F2
330
1F
100
AcDbEntity
  8
0
  6
Continuous
 62
     7
100
AcDbLine
 10
174.5555094503412
 20
249.9073951721856
 30
0.0
 11
174.5555094503412
 21
247.4257438814423
 31
0.0
  0
LINE
  5
F3
330
1F
100
AcDbEntity
  8
0
  6
Continuous
 62
     7
100
AcDbLine
 10
159.7062670454237
 20
256.6547319736894
 30
0.0
 11
166.7773348572893
 21
253.1191980677565
 31
0.0
  0
LINE
  5
F4
330
1F
100
AcDbEntity
  8
0
  6
Continuous
 62
     7
100
AcDbLine
 10
173.5302046176209
 20
271.1109163760654
 30
0.0
 11
161.1558359468564
 21
277.2981007114478
 31
0.0
  0
LINE
  5
F5
330
1F
100
AcDbEntity
  8
0
  6
Continuous
 62
     7
100
AcDbLine
 10
177.5253579313248
 20
267.7900219244348
 30
0.0
 11
174.5555094503413
 21
266.305097683943
 31
0.0
  0
LINE
  5
F6
330
1F
100
AcDbEntity
  8
0
  6
Continuous
 62
     7
100
AcDbLine
 10
173.8484026691548
 20
269.502248448866
 30
0.0
 11
172.0806357161886
 21
270.3861319253492
 31
0.0
  0
LINE
  5
F7
330
1F
100
AcDbEntity
  8
0
  6
Continuous
 62
     7
100
AcDbLine
 10
174.5555094503413
 20
263.6204189322113
 30
0.0
 11
174.3524819893529
 21
263.5189052017171
 31
0.0
  0
LINE
  5
F8
330
1F
100
AcDbEntity
  8
0
  6
Continuous
 62
     7
100
AcDbLine
 10
174.5555094503413
 20
266.305097683943
 30
0.0
 11
174.5555094503413
 21
263.6204189322113
 31
0.0
  0
LINE
  5
F9
330
1F
100
AcDbEntity
  8
0
  6
Continuous
 62
     7
100
AcDbLine
 10
172.0806357161886
 20
270.3861319253492
 30
0.0
 11
172.0806357161886
 21
268.6540811177802
 31
0.0
  0
LINE
  5
FA
330
1F
100
AcDbEntity
  8
0
  6
Continuous
 62
     7
100
AcDbLine
 10
173.5302046176209
 20
271.1109163760654
 30
0.0
 11
172.0806357161886
 21
270.3861319253492
 31
0.0
  0
LINE
  5
FB
330
1F
100
AcDbEntity
  8
0
  6
Continuous
 62
     7
100
AcDbLine
 10
159.7062670454239
 20
273.975240049378
 30
0.0
 11
166.7773348572895
 21
270.4397061434452
 31
0.0
  0
LINE
  5
FC
330
1F
100
AcDbEntity
  8
0
  6
Continuous
 62
     7
100
AcDbLine
 10
161.1558359468564
 20
275.5660499038789
 30
0.0
 11
159.7062670454239
 21
274.8412654531627
 31
0.0
  0
LINE
  5
FD
330
1F
100
AcDbEntity
  8
0
  6
Continuous
 62
     7
100
AcDbLine
 10
159.7062670454239
 20
274.8412654531627
 30
0.0
 11
172.0806357161886
 21
268.6540811177802
 31
0.0
  0
LINE
  5
FE
330
1F
100
AcDbEntity
  8
0
  6
Continuous
 62
     7
100
AcDbLine
 10
165.5398979902133
 20
277.0152579989733
 30
0.0
 11
169.2168532523833
 21
278.8537356300583
 31
0.0
  0
LINE
  5
FF
330
1F
100
AcDbEntity
  8
0
  6
Continuous
 62
     2
100
AcDbLine
 10
165.5398979902133
 20
277.0152579989733
 30
0.0
 11
165.5398979902133
 21
278.7473088065419
 31
0.0
  0
LINE
  5
100
330
1F
100
AcDbEntity
  8
0
  6
Continuous
 62
     7
100
AcDbLine
 10
162.7114708654671
 20
278.0759181707532
 30
0.0
 11
161.1558359468564
 21
277.2981007114478
 31
0.0
  0
LINE
  5
101
330
1F
100
AcDbEntity
  8
0
  6
Continuous
 62
     7
100
AcDbLine
 10
178.7259374309917
 20
267.1897321746013
 30
0.0
 11
178.7259374309917
 21
268.3470104040789
 31
0.0
  0
LINE
  5
102
330
1F
100
AcDbEntity
  8
0
  6
Continuous
 62
     7
100
AcDbLine
 10
166.7773348572895
 20
270.4397061434452
 30
0.0
 11
166.7773348572894
 21
266.9756045283075
 31
0.0
  0
LINE
  5
103
330
1F
100
AcDbEntity
  8
0
  6
Continuous
 62
     7
100
AcDbLine
 10
166.7773348572894
 20
266.9756045283075
 30
0.0
 11
159.7062670454239
 21
270.5111384342403
 31
0.0
  0
LINE
  5
104
330
1F
100
AcDbEntity
  8
0
  6
Continuous
 62
     7
100
AcDbLine
 10
160.4133738266107
 20
270.8646918248337
 30
0.0
 11
166.7773348572894
 21
267.6827113094943
 31
0.0
  0
LINE
  5
105
330
1F
100
AcDbEntity
  8
0
  6
Continuous
 62
     7
100
AcDbLine
 10
195.0000000000002
 20
262.4423531676773
 30
0.0
 11
194.434314575051
 21
262.1595104552027
 31
0.0
  0
LINE
  5
106
330
1F
100
AcDbEntity
  8
0
  6
Continuous
 62
     7
100
AcDbLine
 10
185.6661904883376
 20
244.3520546531873
 30
0.0
 11
174.3524819893529
 21
250.0089089026798
 31
0.0
  0
LINE
  5
107
330
1F
100
AcDbEntity
  8
0
  6
Continuous
 62
     7
100
AcDbLine
 10
193.9746951672796
 20
248.5063069926583
 30
0.0
 11
185.6661904883376
 21
244.3520546531873
 31
0.0
  0
LINE
  5
108
330
1F
100
AcDbEntity
  8
0
  6
Continuous
 62
     7
100
AcDbLine
 10
178.1062136058578
 20
245.650391803684
 30
0.0
 11
173.8484026691548
 21
243.5214863353325
 31
0.0
  0
LINE
  5
109
330
1F
100
AcDbEntity
  8
0
  6
Continuous
 62
     7
100
AcDbLine
 10
173.8484026691548
 20
243.5214863353325
 30
0.0
 11
172.0806357161883
 21
244.4053698118158
 31
0.0
  0
LINE
  5
10A
330
1F
100
AcDbEntity
  8
0
  6
Continuous
 62
     7
100
AcDbLine
 10
172.0806357161883
 20
246.1374206193846
 30
0.0
 11
172.0806357161883
 21
244.4053698118158
 31
0.0
  0
LINE
  5
10B
330
1F
100
AcDbEntity
  8
0
  6
Continuous
 62
     7
100
AcDbLine
 10
187.5662742241738
 20
243.8902099755095
 30
0.0
 11
187.5662742241738
 21
245.3020965211054
 31
0.0
  0
LINE
  5
10C
330
1F
100
AcDbEntity
  8
0
  6
Continuous
 62
     7
100
AcDbLine
 10
195.0000000000001
 20
250.2746962445059
 30
0.0
 11
193.9746951672796
 21
248.5063069926583
 31
0.0
  0
LINE
  5
10D
330
1F
100
AcDbEntity
  8
0
  6
Continuous
 62
     7
100
AcDbLine
 10
187.9289321881346
 20
247.0639218649924
 30
0.0
 11
192.7372583002032
 21
249.4680849210266
 31
0.0
  0
LINE
  5
10E
330
1F
100
AcDbEntity
  8
0
  6
Continuous
 62
     7
100
AcDbLine
 10
195.0000000000002
 20
260.0174820370808
 30
0.0
 11
194.434314575051
 21
259.7346393246062
 31
0.0
  0
LINE
  5
10F
330
1F
100
AcDbEntity
  8
0
  6
Continuous
 62
     7
100
AcDbLine
 10
195.0000000000002
 20
260.0174820370808
 30
0.0
 11
195.0000000000002
 21
262.4423531676773
 31
0.0
  0
LINE
  5
110
330
1F
100
AcDbEntity
  8
0
  6
Continuous
 62
     7
100
AcDbLine
 10
190.7573593128809
 20
264.5636735112369
 30
0.0
 11
195.0000000000002
 21
262.4423531676773
 31
0.0
  0
LINE
  5
111
330
1F
100
AcDbEntity
  8
0
  6
Continuous
 62
     7
100
AcDbLine
 10
190.1916738879316
 20
264.2808307987623
 30
0.0
 11
194.434314575051
 21
262.1595104552027
 31
0.0
  0
LINE
  5
112
330
1F
100
AcDbEntity
  8
0
  6
Continuous
 62
     7
100
AcDbLine
 10
193.5504310985679
 20
261.8041712573395
 30
0.0
 11
189.3077904114485
 21
263.9254916008992
 31
0.0
  0
LINE
  5
113
330
1F
100
AcDbEntity
  8
0
  6
Continuous
 62
     7
100
AcDbLine
 10
185.6661904883378
 20
257.8620509522245
 30
0.0
 11
193.5504310985679
 21
261.8041712573395
 31
0.0
  0
LINE
  5
114
330
1F
100
AcDbEntity
  8
0
  6
Continuous
 62
     7
100
AcDbLine
 10
190.2623845660503
 20
256.3890638328486
 30
0.0
 11
195.0000000000001
 21
254.0202561158736
 31
0.0
  0
LINE
  5
115
330
1F
100
AcDbEntity
  8
0
  6
Continuous
 62
     7
100
AcDbLine
 10
185.6661904883376
 20
244.3520546531873
 30
0.0
 11
185.6661904883378
 21
257.8620509522245
 31
0.0
  0
LINE
  5
116
330
1F
100
AcDbEntity
  8
0
  6
Continuous
 62
     7
100
AcDbLine
 10
195.0000000000001
 20
257.5276590012006
 30
0.0
 11
192.7372583002033
 21
256.3962881513021
 31
0.0
  0
LINE
  5
117
330
1F
100
AcDbEntity
  8
0
  6
Continuous
 62
     7
100
AcDbLine
 10
187.9289321881347
 20
257.4129254402164
 30
0.0
 11
187.9289321881346
 21
247.0639218649924
 31
0.0
  0
LINE
  5
118
330
1F
100
AcDbEntity
  8
0
  6
Continuous
 62
     7
100
AcDbLine
 10
192.7372583002032
 20
252.8888852659752
 30
0.0
 11
195.0000000000001
 21
254.0202561158736
 31
0.0
  0
LINE
  5
119
330
1F
100
AcDbEntity
  8
0
  6
Continuous
 62
     7
100
AcDbLine
 10
174.5555094503412
 20
247.4257438814423
 30
0.0
 11
184.5964257431903
 21
242.4052857350177
 31
0.0
  0
LINE
  5
11A
330
1F
100
AcDbEntity
  8
0
  6
Continuous
 62
     7
100
AcDbLine
 10
184.5964257431903
 20
242.4052857350177
 30
0.0
 11
187.5662742241738
 21
243.8902099755095
 31
0.0
  0
LINE
  5
11B
330
1F
100
AcDbEntity
  8
0
  6
Continuous
 62
     7
100
AcDbLine
 10
184.5964257431903
 20
244.886937025761
 30
0.0
 11
184.5964257431903
 21
242.4052857350177
 31
0.0
  0
LINE
  5
11C
330
1F
100
AcDbEntity
  8
0
  6
Continuous
 62
     7
100
AcDbLine
 10
195.0000000000001
 20
254.0202561158736
 30
0.0
 11
195.0000000000001
 21
250.2746962445059
 31
0.0
  0
LINE
  5
11D
330
1F
100
AcDbEntity
  8
0
  6
Continuous
 62
     7
100
AcDbLine
 10
192.7372583002032
 20
249.4680849210266
 30
0.0
 11
192.7372583002032
 21
252.8888852659752
 31
0.0
  0
LINE
  5
11E
330
1F
100
AcDbEntity
  8
0
  6
Continuous
 62
     7
100
AcDbLine
 10
195.0000000000002
 20
259.4112642544318
 30
0.0
 11
195.0000000000001
 21
257.5276590012006
 31
0.0
  0
LINE
  5
11F
330
1F
100
AcDbEntity
  8
0
  6
Continuous
 62
     7
100
AcDbLine
 10
193.5504310985677
 20
258.6864798037155
 30
0.0
 11
195.0000000000002
 21
259.4112642544318
 31
0.0
  0
LINE
  5
120
330
1F
100
AcDbEntity
  8
0
  6
Continuous
 62
     7
100
AcDbLine
 10
193.5504310985679
 20
261.8041712573395
 30
0.0
 11
193.5504310985677
 21
258.6864798037155
 31
0.0
  0
LINE
  5
121
330
1F
100
AcDbEntity
  8
0
  6
Continuous
 62
     7
100
AcDbLine
 10
193.5504310985677
 20
260.1765810628478
 30
0.0
 11
194.434314575051
 21
259.7346393246062
 31
0.0
  0
LINE
  5
122
330
1F
100
AcDbEntity
  8
0
  6
Continuous
 62
     7
100
AcDbLine
 10
193.5504310985677
 20
260.136048705148
 30
0.0
 11
195.0000000000002
 21
259.4112642544318
 31
0.0
  0
LINE
  5
123
330
1F
100
AcDbEntity
  8
0
  6
Continuous
 62
     7
100
AcDbLine
 10
194.434314575051
 20
259.7346393246062
 30
0.0
 11
194.434314575051
 21
262.1595104552027
 31
0.0
  0
LINE
  5
124
330
1F
100
AcDbEntity
  8
0
  6
Continuous
 62
     7
100
AcDbLine
 10
80.86645485313011
 20
107.5624348789711
 30
0.0
 11
85.11645485312977
 21
107.5624348789711
 31
0.0
  0
LINE
  5
125
330
1F
100
AcDbEntity
  8
0
  6
Continuous
 62
     7
100
AcDbLine
 10
85.11645485312977
 20
107.5624348789711
 30
0.0
 11
85.11645485312977
 21
103.9124348789708
 31
0.0
  0
LINE
  5
126
330
1F
100
AcDbEntity
  8
0
  6
Continuous
 62
     7
100
AcDbLine
 10
83.11433066426571
 20
100.3624348789709
 30
0.0
 11
84.32933066426574
 21
100.3624348789709
 31
0.0
  0
LINE
  5
127
330
1F
100
AcDbEntity
  8
0
  6
Continuous
 62
     7
100
AcDbLine
 10
86.01645485312974
 20
102.9124348789708
 30
0.0
 11
85.11645485312977
 21
102.9124348789708
 31
0.0
  0
LINE
  5
128
330
1F
100
AcDbEntity
  8
0
  6
Continuous
 62
     7
100
AcDbLine
 10
85.11645485312977
 20
103.9124348789708
 30
0.0
 11
86.01645485312974
 21
103.9124348789708
 31
0.0
  0
LINE
  5
129
330
1F
100
AcDbEntity
  8
0
  6
Continuous
 62
     7
100
AcDbLine
 10
85.11645485312977
 20
102.9124348789708
 30
0.0
 11
85.11645485312977
 21
102.2124348789707
 31
0.0
  0
LINE
  5
12A
330
1F
100
AcDbEntity
  8
0
  6
Continuous
 62
     7
100
AcDbLine
 10
86.01645485312974
 20
102.2124348789707
 30
0.0
 11
85.11645485312977
 21
102.2124348789707
 31
0.0
  0
LINE
  5
12B
330
1F
100
AcDbEntity
  8
0
  6
Continuous
 62
     7
100
AcDbLine
 10
85.11645485312977
 20
103.9124348789708
 30
0.0
 11
85.11645485312977
 21
102.9124348789708
 31
0.0
  0
LINE
  5
12C
330
1F
100
AcDbEntity
  8
0
  6
Continuous
 62
     7
100
AcDbLine
 10
85.11645485312977
 20
102.2124348789707
 30
0.0
 11
85.11645485312977
 21
101.2124348789707
 31
0.0
  0
LINE
  5
12D
330
1F
100
AcDbEntity
  8
0
  6
Continuous
 62
     7
100
AcDbLine
 10
80.86645485313011
 20
109.5624348789708
 30
0.0
 11
80.86645485313011
 21
107.5624348789711
 31
0.0
  0
LINE
  5
12E
330
1F
100
AcDbEntity
  8
0
  6
Continuous
 62
     2
100
AcDbLine
 10
80.36645485313011
 20
109.5624348789708
 30
0.0
 11
80.36645485313011
 21
107.5624348789711
 31
0.0
  0
LINE
  5
12F
330
1F
100
AcDbEntity
  8
0
  6
Continuous
 62
     7
100
AcDbLine
 10
82.27933066426579
 20
100.3624348789709
 30
0.0
 11
83.11433066426571
 21
100.3624348789709
 31
0.0
  0
LINE
  5
130
330
1F
100
AcDbEntity
  8
0
  6
Continuous
 62
     7
100
AcDbLine
 10
80.86645485313011
 20
109.5624348789708
 30
0.0
 11
80.36645485313011
 21
109.5624348789708
 31
0.0
  0
LINE
  5
131
330
1F
100
AcDbEntity
  8
0
  6
Continuous
 62
     7
100
AcDbLine
 10
80.36645485313011
 20
107.5624348789711
 30
0.0
 11
80.86645485313011
 21
107.5624348789711
 31
0.0
  0
LINE
  5
132
330
1F
100
AcDbEntity
  8
0
  6
Continuous
 62
     7
100
AcDbLine
 10
84.32933066426574
 20
94.58743487897095
 30
0.0
 11
81.12933066426581
 21
94.58743487897095
 31
0.0
  0
LINE
  5
133
330
1F
100
AcDbEntity
  8
0
  6
Continuous
 62
     7
100
AcDbLine
 10
82.27933066426579
 20
96.76243487897096
 30
0.0
 11
84.32933066426574
 21
96.76243487897096
 31
0.0
  0
LINE
  5
134
330
1F
100
AcDbEntity
  8
0
  6
Continuous
 62
     7
100
AcDbLine
 10
82.27933066426579
 20
98.66243487897094
 30
0.0
 11
82.27933066426579
 21
96.76243487897096
 31
0.0
  0
LINE
  5
135
330
1F
100
AcDbEntity
  8
0
  6
Continuous
 62
     7
100
AcDbLine
 10
84.32933066426574
 20
97.46243487897095
 30
0.0
 11
83.52933066426579
 21
97.46243487897095
 31
0.0
  0
LINE
  5
136
330
1F
100
AcDbEntity
  8
0
  6
Continuous
 62
     7
100
AcDbLine
 10
83.52933066426579
 20
97.46243487897095
 30
0.0
 11
83.52933066426579
 21
98.66243487897094
 31
0.0
  0
LINE
  5
137
330
1F
100
AcDbEntity
  8
0
  6
Continuous
 62
     7
100
AcDbLine
 10
84.32933066426574
 20
97.46243487897095
 30
0.0
 11
84.32933066426574
 21
100.262434878971
 31
0.0
  0
LINE
  5
138
330
1F
100
AcDbEntity
  8
0
  6
Continuous
 62
     7
100
AcDbLine
 10
84.32933066426574
 20
100.3624348789709
 30
0.0
 11
84.32933066426574
 21
100.262434878971
 31
0.0
  0
LINE
  5
139
330
1F
100
AcDbEntity
  8
0
  6
Continuous
 62
     7
100
AcDbLine
 10
83.52933066426579
 20
99.06243487897098
 30
0.0
 11
83.52933066426579
 21
100.262434878971
 31
0.0
  0
LINE
  5
13A
330
1F
100
AcDbEntity
  8
0
  6
Continuous
 62
     7
100
AcDbLine
 10
84.32933066426574
 20
100.262434878971
 30
0.0
 11
83.52933066426579
 21
100.262434878971
 31
0.0
  0
LINE
  5
13B
330
1F
100
AcDbEntity
  8
0
  6
Continuous
 62
     7
100
AcDbLine
 10
83.52933066426579
 20
98.66243487897094
 30
0.0
 11
83.52933066426579
 21
99.06243487897098
 31
0.0
  0
LINE
  5
13C
330
1F
100
AcDbEntity
  8
0
  6
Continuous
 62
     7
100
AcDbLine
 10
83.52933066426579
 20
99.06243487897098
 30
0.0
 11
82.27933066426579
 21
99.06243487897098
 31
0.0
  0
LINE
  5
13D
330
1F
100
AcDbEntity
  8
0
  6
Continuous
 62
     7
100
AcDbLine
 10
82.27933066426579
 20
98.66243487897094
 30
0.0
 11
83.52933066426579
 21
98.66243487897094
 31
0.0
  0
LINE
  5
13E
330
1F
100
AcDbEntity
  8
0
  6
Continuous
 62
     7
100
AcDbLine
 10
81.12933066426581
 20
94.58743487897095
 30
0.0
 11
81.12933066426581
 21
98.53743487897094
 31
0.0
  0
LINE
  5
13F
330
1F
100
AcDbEntity
  8
0
  6
Continuous
 62
     7
100
AcDbLine
 10
81.12933066426581
 20
90.53743487897094
 30
0.0
 11
81.12933066426581
 21
94.58743487897095
 31
0.0
  0
LINE
  5
140
330
1F
100
AcDbEntity
  8
0
  6
Continuous
 62
     7
100
AcDbLine
 10
80.36645485313011
 20
109.5624348789708
 30
0.0
 11
75.16645485313018
 21
109.5624348789708
 31
0.0
  0
LINE
  5
141
330
1F
100
AcDbEntity
  8
0
  6
Continuous
 62
     7
100
AcDbLine
 10
74.66645485313018
 20
107.562434878971
 30
0.0
 11
74.66645485313018
 21
109.5624348789707
 31
0.0
  0
LINE
  5
142
330
1F
100
AcDbEntity
  8
0
  6
Continuous
 62
     2
100
AcDbLine
 10
75.16645485313018
 20
107.562434878971
 30
0.0
 11
75.16645485313018
 21
109.5624348789708
 31
0.0
  0
LINE
  5
143
330
1F
100
AcDbEntity
  8
0
  6
Continuous
 62
     7
100
AcDbLine
 10
75.61645485312977
 20
100.3624348789709
 30
0.0
 11
75.61645485312977
 21
103.462434878971
 31
0.0
  0
LINE
  5
144
330
1F
100
AcDbEntity
  8
0
  6
Continuous
 62
     7
100
AcDbLine
 10
74.66645485313018
 20
109.5624348789707
 30
0.0
 11
75.16645485313018
 21
109.5624348789708
 31
0.0
  0
LINE
  5
145
330
1F
100
AcDbEntity
  8
0
  6
Continuous
 62
     7
100
AcDbLine
 10
74.66645485313018
 20
107.562434878971
 30
0.0
 11
75.16645485313018
 21
107.562434878971
 31
0.0
  0
LINE
  5
146
330
1F
100
AcDbEntity
  8
0
  6
Continuous
 62
     7
100
AcDbLine
 10
77.31433066426575
 20
102.4124348789707
 30
0.0
 11
77.31433066426575
 21
103.4124348789708
 31
0.0
  0
LINE
  5
147
330
1F
100
AcDbEntity
  8
0
  6
Continuous
 62
     7
100
AcDbLine
 10
75.16645485313018
 20
107.562434878971
 30
0.0
 11
80.36645485313011
 21
107.5624348789711
 31
0.0
  0
LINE
  5
148
330
1F
100
AcDbEntity
  8
0
  6
Continuous
 62
     7
100
AcDbLine
 10
71.12933066426581
 20
84.76243487897096
 30
0.0
 11
71.12933066426581
 21
100.3624348789709
 31
0.0
  0
LINE
  5
149
330
1F
100
AcDbEntity
  8
0
  6
Continuous
 62
     7
100
AcDbLine
 10
70.41645485312972
 20
77.56243487897063
 30
0.0
 11
70.41645485312972
 21
107.562434878971
 31
0.0
  0
LINE
  5
14A
330
1F
100
AcDbEntity
  8
0
  6
Continuous
 62
     7
100
AcDbLine
 10
73.66645485313029
 20
77.56243487897063
 30
0.0
 11
70.41645485312972
 21
77.56243487897063
 31
0.0
  0
LINE
  5
14B
330
1F
100
AcDbEntity
  8
0
  6
Continuous
 62
     7
100
AcDbLine
 10
73.66645485313029
 20
77.56243487897063
 30
0.0
 11
73.66645485313029
 21
75.56243487897075
 31
0.0
  0
LINE
  5
14C
330
1F
100
AcDbEntity
  8
0
  6
Continuous
 62
     7
100
AcDbLine
 10
71.41645485312972
 20
84.76243487897096
 30
0.0
 11
71.12933066426581
 21
84.76243487897096
 31
0.0
  0
LINE
  5
14D
330
1F
100
AcDbEntity
  8
0
  6
Continuous
 62
     7
100
AcDbLine
 10
71.12933066426581
 20
100.3624348789709
 30
0.0
 11
71.41645485312972
 21
100.3624348789709
 31
0.0
  0
LINE
  5
14E
330
1F
100
AcDbEntity
  8
0
  6
Continuous
 62
     7
100
AcDbLine
 10
74.32933066426574
 20
98.53743487897094
 30
0.0
 11
74.32933066426574
 21
86.58743487897095
 31
0.0
  0
LINE
  5
14F
330
1F
100
AcDbEntity
  8
0
  6
Continuous
 62
     7
100
AcDbLine
 10
74.32933066426574
 20
86.58743487897095
 30
0.0
 11
81.12933066426581
 21
86.58743487897095
 31
0.0
  0
LINE
  5
150
330
1F
100
AcDbEntity
  8
0
  6
Continuous
 62
     7
100
AcDbLine
 10
75.61645485312977
 20
84.76243487897096
 30
0.0
 11
71.41645485312972
 21
84.76243487897096
 31
0.0
  0
LINE
  5
151
330
1F
100
AcDbEntity
  8
0
  6
Continuous
 62
     7
100
AcDbLine
 10
71.41645485312972
 20
81.66243487897106
 30
0.0
 11
75.61645485312977
 21
81.66243487897106
 31
0.0
  0
LINE
  5
152
330
1F
100
AcDbEntity
  8
0
  6
Continuous
 62
     7
100
AcDbLine
 10
71.41645485312972
 20
84.76243487897096
 30
0.0
 11
71.41645485312972
 21
81.66243487897106
 31
0.0
  0
LINE
  5
153
330
1F
100
AcDbEntity
  8
0
  6
Continuous
 62
     7
100
AcDbLine
 10
85.11645485312977
 20
101.2124348789707
 30
0.0
 11
85.11645485312977
 21
83.91243487897077
 31
0.0
  0
LINE
  5
154
330
1F
100
AcDbEntity
  8
0
  6
Continuous
 62
     7
100
AcDbLine
 10
84.32933066426574
 20
90.53743487897094
 30
0.0
 11
84.32933066426574
 21
94.58743487897095
 31
0.0
  0
LINE
  5
155
330
1F
100
AcDbEntity
  8
0
  6
Continuous
 62
     7
100
AcDbLine
 10
85.11645485312977
 20
83.91243487897077
 30
0.0
 11
85.11645485312977
 21
82.91243487897077
 31
0.0
  0
LINE
  5
156
330
1F
100
AcDbEntity
  8
0
  6
Continuous
 62
     7
100
AcDbLine
 10
86.01645485312974
 20
101.2124348789707
 30
0.0
 11
86.01645485312974
 21
102.2124348789707
 31
0.0
  0
LINE
  5
157
330
1F
100
AcDbEntity
  8
0
  6
Continuous
 62
     7
100
AcDbLine
 10
86.01645485312974
 20
81.21243487897073
 30
0.0
 11
86.01645485312974
 21
82.21243487897073
 31
0.0
  0
LINE
  5
158
330
1F
100
AcDbEntity
  8
0
  6
Continuous
 62
     7
100
AcDbLine
 10
86.01645485312974
 20
103.9124348789708
 30
0.0
 11
86.01645485312974
 21
102.9124348789708
 31
0.0
  0
LINE
  5
159
330
1F
100
AcDbEntity
  8
0
  6
Continuous
 62
     7
100
AcDbLine
 10
85.11645485312977
 20
81.21243487897073
 30
0.0
 11
86.01645485312974
 21
81.21243487897073
 31
0.0
  0
LINE
  5
15A
330
1F
100
AcDbEntity
  8
0
  6
Continuous
 62
     7
100
AcDbLine
 10
86.01645485312974
 20
82.21243487897073
 30
0.0
 11
85.11645485312977
 21
82.21243487897073
 31
0.0
  0
LINE
  5
15B
330
1F
100
AcDbEntity
  8
0
  6
Continuous
 62
     7
100
AcDbLine
 10
86.01645485312974
 20
83.91243487897077
 30
0.0
 11
86.01645485312974
 21
82.91243487897077
 31
0.0
  0
LINE
  5
15C
330
1F
100
AcDbEntity
  8
0
  6
Continuous
 62
     7
100
AcDbLine
 10
86.01645485312974
 20
82.91243487897077
 30
0.0
 11
85.11645485312977
 21
82.91243487897077
 31
0.0
  0
LINE
  5
15D
330
1F
100
AcDbEntity
  8
0
  6
Continuous
 62
     7
100
AcDbLine
 10
85.11645485312977
 20
83.91243487897077
 30
0.0
 11
86.01645485312974
 21
83.91243487897077
 31
0.0
  0
LINE
  5
15E
330
1F
100
AcDbEntity
  8
0
  6
Continuous
 62
     7
100
AcDbLine
 10
85.11645485312977
 20
82.91243487897077
 30
0.0
 11
85.11645485312977
 21
82.21243487897073
 31
0.0
  0
LINE
  5
15F
330
1F
100
AcDbEntity
  8
0
  6
Continuous
 62
     7
100
AcDbLine
 10
85.11645485312977
 20
101.2124348789707
 30
0.0
 11
86.01645485312974
 21
101.2124348789707
 31
0.0
  0
LINE
  5
160
330
1F
100
AcDbEntity
  8
0
  6
Continuous
 62
     7
100
AcDbLine
 10
84.32933066426574
 20
86.21243487897095
 30
0.0
 11
84.32933066426574
 21
84.76243487897096
 31
0.0
  0
LINE
  5
161
330
1F
100
AcDbEntity
  8
0
  6
Continuous
 62
     7
100
AcDbLine
 10
84.32933066426574
 20
86.21243487897095
 30
0.0
 11
84.32933066426574
 21
90.53743487897094
 31
0.0
  0
LINE
  5
162
330
1F
100
AcDbEntity
  8
0
  6
Continuous
 62
     7
100
AcDbLine
 10
84.32933066426574
 20
96.76243487897096
 30
0.0
 11
84.32933066426574
 21
94.58743487897095
 31
0.0
  0
LINE
  5
163
330
1F
100
AcDbEntity
  8
0
  6
Continuous
 62
     7
100
AcDbLine
 10
84.32933066426574
 20
97.46243487897095
 30
0.0
 11
84.32933066426574
 21
96.76243487897096
 31
0.0
  0
LINE
  5
164
330
1F
100
AcDbEntity
  8
0
  6
Continuous
 62
     7
100
AcDbLine
 10
85.11645485312977
 20
82.21243487897073
 30
0.0
 11
85.11645485312977
 21
81.21243487897073
 31
0.0
  0
LINE
  5
165
330
1F
100
AcDbEntity
  8
0
  6
Continuous
 62
     7
100
AcDbLine
 10
85.11645485312977
 20
81.21243487897073
 30
0.0
 11
85.11645485312977
 21
77.56243487897063
 31
0.0
  0
LINE
  5
166
330
1F
100
AcDbEntity
  8
0
  6
Continuous
 62
     7
100
AcDbLine
 10
74.16645485313018
 20
75.56243487897075
 30
0.0
 11
81.36645485313022
 21
75.56243487897075
 31
0.0
  0
LINE
  5
167
330
1F
100
AcDbEntity
  8
0
  6
Continuous
 62
     7
100
AcDbLine
 10
74.16645485313018
 20
75.56243487897075
 30
0.0
 11
73.66645485313029
 21
75.56243487897075
 31
0.0
  0
LINE
  5
168
330
1F
100
AcDbEntity
  8
0
  6
Continuous
 62
     7
100
AcDbLine
 10
85.11645485312977
 20
77.56243487897063
 30
0.0
 11
81.86645485313022
 21
77.56243487897063
 31
0.0
  0
LINE
  5
169
330
1F
100
AcDbEntity
  8
0
  6
Continuous
 62
     7
100
AcDbLine
 10
81.86645485313022
 20
77.56243487897063
 30
0.0
 11
81.36645485313022
 21
77.56243487897063
 31
0.0
  0
LINE
  5
16A
330
1F
100
AcDbEntity
  8
0
  6
Continuous
 62
     7
100
AcDbLine
 10
81.36645485313022
 20
75.56243487897075
 30
0.0
 11
81.86645485313022
 21
75.56243487897075
 31
0.0
  0
LINE
  5
16B
330
1F
100
AcDbEntity
  8
0
  6
Continuous
 62
     7
100
AcDbLine
 10
81.36645485313022
 20
77.56243487897063
 30
0.0
 11
74.16645485313018
 21
77.56243487897063
 31
0.0
  0
LINE
  5
16C
330
1F
100
AcDbEntity
  8
0
  6
Continuous
 62
     7
100
AcDbLine
 10
70.41645485312972
 20
107.562434878971
 30
0.0
 11
74.66645485313018
 21
107.562434878971
 31
0.0
  0
LINE
  5
16D
330
1F
100
AcDbEntity
  8
0
  6
Continuous
 62
     7
100
AcDbLine
 10
77.31433066426575
 20
103.4124348789708
 30
0.0
 11
83.11433066426571
 21
103.4124348789708
 31
0.0
  0
LINE
  5
16E
330
1F
100
AcDbEntity
  8
0
  6
Continuous
 62
     7
100
AcDbLine
 10
71.41645485312972
 20
103.462434878971
 30
0.0
 11
71.41645485312972
 21
100.3624348789709
 31
0.0
  0
LINE
  5
16F
330
1F
100
AcDbEntity
  8
0
  6
Continuous
 62
     7
100
AcDbLine
 10
83.11433066426571
 20
103.4124348789708
 30
0.0
 11
83.11433066426571
 21
102.4124348789707
 31
0.0
  0
LINE
  5
170
330
1F
100
AcDbEntity
  8
0
  6
Continuous
 62
     7
100
AcDbLine
 10
83.11433066426571
 20
102.4124348789707
 30
0.0
 11
77.31433066426575
 21
102.4124348789707
 31
0.0
  0
LINE
  5
171
330
1F
100
AcDbEntity
  8
0
  6
Continuous
 62
     7
100
AcDbLine
 10
84.32933066426574
 20
86.21243487897095
 30
0.0
 11
82.87933066426581
 21
84.76243487897096
 31
0.0
  0
LINE
  5
172
330
1F
100
AcDbEntity
  8
0
  6
Continuous
 62
     7
100
AcDbLine
 10
77.31433066426575
 20
81.71243487897095
 30
0.0
 11
83.11433066426571
 21
81.71243487897095
 31
0.0
  0
LINE
  5
173
330
1F
100
AcDbEntity
  8
0
  6
Continuous
 62
     7
100
AcDbLine
 10
83.11433066426571
 20
82.71243487897095
 30
0.0
 11
77.31433066426575
 21
82.71243487897095
 31
0.0
  0
LINE
  5
174
330
1F
100
AcDbEntity
  8
0
  6
Continuous
 62
     7
100
AcDbLine
 10
77.31433066426575
 20
82.71243487897095
 30
0.0
 11
77.31433066426575
 21
84.76243487897096
 31
0.0
  0
LINE
  5
175
330
1F
100
AcDbEntity
  8
0
  6
Continuous
 62
     7
100
AcDbLine
 10
77.31433066426575
 20
81.71243487897095
 30
0.0
 11
77.31433066426575
 21
82.71243487897095
 31
0.0
  0
LINE
  5
176
330
1F
100
AcDbEntity
  8
0
  6
Continuous
 62
     7
100
AcDbLine
 10
75.61645485312977
 20
81.66243487897106
 30
0.0
 11
75.61645485312977
 21
84.76243487897096
 31
0.0
  0
LINE
  5
177
330
1F
100
AcDbEntity
  8
0
  6
Continuous
 62
     7
100
AcDbLine
 10
77.31433066426575
 20
84.76243487897096
 30
0.0
 11
82.28933066426578
 21
84.76243487897096
 31
0.0
  0
LINE
  5
178
330
1F
100
AcDbEntity
  8
0
  6
Continuous
 62
     7
100
AcDbLine
 10
82.28933066426578
 20
84.76243487897096
 30
0.0
 11
82.28933066426578
 21
84.21243487897101
 31
0.0
  0
LINE
  5
179
330
1F
100
AcDbEntity
  8
0
  6
Continuous
 62
     7
100
AcDbLine
 10
82.28933066426578
 20
84.21243487897101
 30
0.0
 11
83.11433066426571
 21
84.21243487897101
 31
0.0
  0
LINE
  5
17A
330
1F
100
AcDbEntity
  8
0
  6
Continuous
 62
     7
100
AcDbLine
 10
83.11433066426571
 20
82.71243487897095
 30
0.0
 11
83.11433066426571
 21
81.71243487897095
 31
0.0
  0
LINE
  5
17B
330
1F
100
AcDbEntity
  8
0
  6
Continuous
 62
     7
100
AcDbLine
 10
83.11433066426571
 20
84.21243487897101
 30
0.0
 11
83.11433066426571
 21
82.71243487897095
 31
0.0
  0
LINE
  5
17C
330
1F
100
AcDbEntity
  8
0
  6
Continuous
 62
     7
100
AcDbLine
 10
83.11433066426571
 20
84.71243487897095
 30
0.0
 11
83.11433066426571
 21
84.21243487897101
 31
0.0
  0
LINE
  5
17D
330
1F
100
AcDbEntity
  8
0
  6
Continuous
 62
     7
100
AcDbLine
 10
84.32933066426574
 20
84.71243487897095
 30
0.0
 11
84.32933066426574
 21
84.76243487897096
 31
0.0
  0
LINE
  5
17E
330
1F
100
AcDbEntity
  8
0
  6
Continuous
 62
     7
100
AcDbLine
 10
83.11433066426571
 20
84.71243487897095
 30
0.0
 11
84.32933066426574
 21
84.71243487897095
 31
0.0
  0
LINE
  5
17F
330
1F
100
AcDbEntity
  8
0
  6
Continuous
 62
     7
100
AcDbLine
 10
75.61645485312977
 20
84.76243487897096
 30
0.0
 11
77.31433066426575
 21
84.76243487897096
 31
0.0
  0
LINE
  5
180
330
1F
100
AcDbEntity
  8
0
  6
Continuous
 62
     7
100
AcDbLine
 10
82.87933066426581
 20
84.76243487897096
 30
0.0
 11
84.32933066426574
 21
84.76243487897096
 31
0.0
  0
LINE
  5
181
330
1F
100
AcDbEntity
  8
0
  6
Continuous
 62
     7
100
AcDbLine
 10
82.28933066426578
 20
84.76243487897096
 30
0.0
 11
82.87933066426581
 21
84.76243487897096
 31
0.0
  0
LINE
  5
182
330
1F
100
AcDbEntity
  8
0
  6
Continuous
 62
     7
100
AcDbLine
 10
81.12933066426581
 20
90.53743487897094
 30
0.0
 11
84.32933066426574
 21
90.53743487897094
 31
0.0
  0
LINE
  5
183
330
1F
100
AcDbEntity
  8
0
  6
Continuous
 62
     7
100
AcDbLine
 10
81.12933066426581
 20
86.58743487897095
 30
0.0
 11
81.12933066426581
 21
90.53743487897094
 31
0.0
  0
LINE
  5
184
330
1F
100
AcDbEntity
  8
0
  6
Continuous
 62
     7
100
AcDbLine
 10
81.12933066426581
 20
98.53743487897094
 30
0.0
 11
74.32933066426574
 21
98.53743487897094
 31
0.0
  0
LINE
  5
185
330
1F
100
AcDbEntity
  8
0
  6
Continuous
 62
     7
100
AcDbLine
 10
83.11433066426571
 20
102.4124348789707
 30
0.0
 11
83.11433066426571
 21
100.3624348789709
 31
0.0
  0
LINE
  5
186
330
1F
100
AcDbEntity
  8
0
  6
Continuous
 62
     7
100
AcDbLine
 10
77.31433066426575
 20
100.3624348789709
 30
0.0
 11
77.31433066426575
 21
102.4124348789707
 31
0.0
  0
LINE
  5
187
330
1F
100
AcDbEntity
  8
0
  6
Continuous
 62
     7
100
AcDbLine
 10
75.61645485312977
 20
103.462434878971
 30
0.0
 11
71.41645485312972
 21
103.462434878971
 31
0.0
  0
LINE
  5
188
330
1F
100
AcDbEntity
  8
0
  6
Continuous
 62
     7
100
AcDbLine
 10
77.31433066426575
 20
100.3624348789709
 30
0.0
 11
82.27933066426579
 21
100.3624348789709
 31
0.0
  0
LINE
  5
189
330
1F
100
AcDbEntity
  8
0
  6
Continuous
 62
     7
100
AcDbLine
 10
71.41645485312972
 20
100.3624348789709
 30
0.0
 11
75.61645485312977
 21
100.3624348789709
 31
0.0
  0
LINE
  5
18A
330
1F
100
AcDbEntity
  8
0
  6
Continuous
 62
     7
100
AcDbLine
 10
75.61645485312977
 20
100.3624348789709
 30
0.0
 11
77.31433066426575
 21
100.3624348789709
 31
0.0
  0
LINE
  5
18B
330
1F
100
AcDbEntity
  8
0
  6
Continuous
 62
     7
100
AcDbLine
 10
82.27933066426579
 20
100.3624348789709
 30
0.0
 11
82.27933066426579
 21
99.06243487897098
 31
0.0
  0
LINE
  5
18C
330
1F
100
AcDbEntity
  8
0
  6
Continuous
 62
     7
100
AcDbLine
 10
82.27933066426579
 20
99.06243487897098
 30
0.0
 11
82.27933066426579
 21
98.66243487897094
 31
0.0
  0
LINE
  5
18D
330
1F
100
AcDbEntity
  8
0
  6
Continuous
 62
     7
100
AcDbLine
 10
81.86645485313022
 20
75.56243487897075
 30
0.0
 11
81.86645485313022
 21
77.56243487897063
 31
0.0
  0
LINE
  5
18E
330
1F
100
AcDbEntity
  8
0
  6
Continuous
 62
     2
100
AcDbLine
 10
81.36645485313022
 20
75.56243487897075
 30
0.0
 11
81.36645485313022
 21
77.56243487897063
 31
0.0
  0
LINE
  5
18F
330
1F
100
AcDbEntity
  8
0
  6
Continuous
 62
     7
100
AcDbLine
 10
74.16645485313018
 20
77.56243487897063
 30
0.0
 11
73.66645485313029
 21
77.56243487897063
 31
0.0
  0
LINE
  5
190
330
1F
100
AcDbEntity
  8
0
  6
Continuous
 62
     2
100
AcDbLine
 10
74.16645485313018
 20
77.56243487897063
 30
0.0
 11
74.16645485313018
 21
75.56243487897075
 31
0.0
  0
LINE
  5
191
330
1F
100
AcDbEntity
  8
0
  6
Continuous
 62
     7
100
AcDbLine
 10
81.12933066426581
 20
236.9374310641191
 30
0.0
 11
74.32933066426574
 21
236.9374310641191
 31
0.0
  0
LINE
  5
192
330
1F
100
AcDbEntity
  8
0
  6
Continuous
 62
     7
100
AcDbLine
 10
84.32933066426574
 20
228.9374310641191
 30
0.0
 11
84.32933066426574
 21
232.9874310641191
 31
0.0
  0
LINE
  5
193
330
1F
100
AcDbEntity
  8
0
  6
Continuous
 62
     7
100
AcDbLine
 10
71.63589275869776
 20
225.5159136511838
 30
0.0
 11
71.5758927586977
 21
225.4761126561589
 31
0.0
  0
LINE
  5
194
330
1F
100
AcDbEntity
  8
0
  6
Continuous
 62
     7
100
AcDbLine
 10
71.61189275869776
 20
233.2248688750644
 30
0.0
 11
71.63989275869778
 21
233.2845703676017
 31
0.0
  0
LINE
  5
195
330
1F
100
AcDbEntity
  8
0
  6
Continuous
 62
     7
100
AcDbLine
 10
71.56789275869778
 20
233.1900430044176
 30
0.0
 11
71.61189275869776
 21
233.2248688750644
 31
0.0
  0
LINE
  5
196
330
1F
100
AcDbEntity
  8
0
  6
Continuous
 62
     7
100
AcDbLine
 10
71.71589275869769
 20
231.7198937506863
 30
0.0
 11
71.65189275869773
 21
231.3119335516813
 31
0.0
  0
LINE
  5
197
330
1F
100
AcDbEntity
  8
0
  6
Continuous
 62
     7
100
AcDbLine
 10
71.5958927586978
 20
231.4114360392435
 30
0.0
 11
71.62789275869773
 21
231.6203912631241
 31
0.0
  0
LINE
  5
198
330
1F
100
AcDbEntity
  8
0
  6
Continuous
 62
     7
100
AcDbLine
 10
71.6678927586978
 20
232.0532270840195
 30
0.0
 11
71.71189275869779
 21
231.9835753427261
 31
0.0
  0
LINE
  5
199
330
1F
100
AcDbEntity
  8
0
  6
Continuous
 62
     7
100
AcDbLine
 10
71.63189275869775
 20
227.3840728551639
 30
0.0
 11
71.5718927586978
 21
227.3144211138703
 31
0.0
  0
LINE
  5
19A
330
1F
100
AcDbEntity
  8
0
  6
Continuous
 62
     7
100
AcDbLine
 10
71.60789275869774
 20
232.0980032034226
 30
0.0
 11
71.6678927586978
 21
232.0532270840195
 31
0.0
  0
LINE
  5
19B
330
1F
100
AcDbEntity
  8
0
  6
Continuous
 62
     7
100
AcDbLine
 10
71.62789275869773
 20
231.6203912631241
 30
0.0
 11
71.5718927586978
 21
231.5855653924773
 31
0.0
  0
LINE
  5
19C
330
1F
100
AcDbEntity
  8
0
  6
Continuous
 62
     7
100
AcDbLine
 10
71.57789275869777
 20
234.754719621333
 30
0.0
 11
71.52989275869777
 21
234.6303415118802
 31
0.0
  0
LINE
  5
19D
330
1F
100
AcDbEntity
  8
0
  6
Continuous
 62
     7
100
AcDbLine
 10
71.6098927586977
 20
234.8840728551639
 30
0.0
 11
71.57789275869777
 21
234.754719621333
 31
0.0
  0
LINE
  5
19E
330
1F
100
AcDbEntity
  8
0
  6
Continuous
 62
     7
100
AcDbLine
 10
71.66989275869776
 20
236.5482519596415
 30
0.0
 11
71.71389275869774
 21
236.4736250939697
 31
0.0
  0
LINE
  5
19F
330
1F
100
AcDbEntity
  8
0
  6
Continuous
 62
     7
100
AcDbLine
 10
71.60589275869779
 20
236.6029783278006
 30
0.0
 11
71.66989275869776
 21
236.5482519596415
 31
0.0
  0
LINE
  5
1A0
330
1F
100
AcDbEntity
  8
0
  6
Continuous
 62
     7
100
AcDbLine
 10
71.63389275869781
 20
235.0084509646166
 30
0.0
 11
71.6098927586977
 21
234.8840728551639
 31
0.0
  0
LINE
  5
1A1
330
1F
100
AcDbEntity
  8
0
  6
Continuous
 62
     7
100
AcDbLine
 10
71.65589275869775
 20
228.3616847954624
 30
0.0
 11
71.5998927586977
 21
228.3218838004375
 31
0.0
  0
LINE
  5
1A2
330
1F
100
AcDbEntity
  8
0
  6
Continuous
 62
     7
100
AcDbLine
 10
71.52789275869782
 20
228.3865604173529
 30
0.0
 11
71.57189275869769
 21
228.3965106661092
 31
0.0
  0
LINE
  5
1A3
330
1F
100
AcDbEntity
  8
0
  6
Continuous
 62
     7
100
AcDbLine
 10
71.56789275869778
 20
229.0333265865072
 30
0.0
 11
71.5238927586978
 21
229.0383017108853
 31
0.0
  0
LINE
  5
1A4
330
1F
100
AcDbEntity
  8
0
  6
Continuous
 62
     7
100
AcDbLine
 10
71.64789275869771
 20
228.8790977307858
 30
0.0
 11
71.63189275869775
 21
228.9537245964574
 31
0.0
  0
LINE
  5
1A5
330
1F
100
AcDbEntity
  8
0
  6
Continuous
 62
     7
100
AcDbLine
 10
71.63189275869775
 20
228.9537245964574
 30
0.0
 11
71.60389275869773
 21
229.0034758402385
 31
0.0
  0
LINE
  5
1A6
330
1F
100
AcDbEntity
  8
0
  6
Continuous
 62
     7
100
AcDbLine
 10
71.60389275869773
 20
229.0034758402385
 30
0.0
 11
71.56789275869778
 21
229.0333265865072
 31
0.0
  0
LINE
  5
1A7
330
1F
100
AcDbEntity
  8
0
  6
Continuous
 62
     7
100
AcDbLine
 10
71.61189275869776
 20
233.4885504671042
 30
0.0
 11
71.58389275869774
 21
233.5184012133728
 31
0.0
  0
LINE
  5
1A8
330
1F
100
AcDbEntity
  8
0
  6
Continuous
 62
     7
100
AcDbLine
 10
71.54989275869775
 20
234.9985007158603
 30
0.0
 11
71.55789275869779
 21
235.1079534521788
 31
0.0
  0
LINE
  5
1A9
330
1F
100
AcDbEntity
  8
0
  6
Continuous
 62
     7
100
AcDbLine
 10
71.58389275869774
 20
233.5184012133728
 30
0.0
 11
71.5518927586977
 21
233.5333265865072
 31
0.0
  0
LINE
  5
1AA
330
1F
100
AcDbEntity
  8
0
  6
Continuous
 62
     7
100
AcDbLine
 10
71.63789275869772
 20
236.3193962382485
 30
0.0
 11
71.64589275869776
 21
236.3790977307858
 31
0.0
  0
LINE
  5
1AB
330
1F
100
AcDbEntity
  8
0
  6
Continuous
 62
     7
100
AcDbLine
 10
71.61389275869772
 20
236.2646698700893
 30
0.0
 11
71.63789275869772
 21
236.3193962382485
 31
0.0
  0
LINE
  5
1AC
330
1F
100
AcDbEntity
  8
0
  6
Continuous
 62
     7
100
AcDbLine
 10
71.57389275869775
 20
236.2298439994425
 30
0.0
 11
71.61389275869772
 21
236.2646698700893
 31
0.0
  0
LINE
  5
1AD
330
1F
100
AcDbEntity
  8
0
  6
Continuous
 62
     7
100
AcDbLine
 10
71.52189275869773
 20
236.2149186263081
 30
0.0
 11
71.57389275869775
 21
236.2298439994425
 31
0.0
  0
LINE
  5
1AE
330
1F
100
AcDbEntity
  8
0
  6
Continuous
 62
     7
100
AcDbLine
 10
71.6098927586977
 20
236.1751176312833
 30
0.0
 11
71.6538927586978
 21
236.1502420093927
 31
0.0
  0
LINE
  5
1AF
330
1F
100
AcDbEntity
  8
0
  6
Continuous
 62
     7
100
AcDbLine
 10
71.63389275869781
 20
236.4586997208355
 30
0.0
 11
71.61389275869772
 21
236.4935255914823
 31
0.0
  0
LINE
  5
1B0
330
1F
100
AcDbEntity
  8
0
  6
Continuous
 62
     7
100
AcDbLine
 10
71.61389275869772
 20
236.4935255914823
 30
0.0
 11
71.58589275869781
 21
236.5184012133728
 31
0.0
  0
LINE
  5
1B1
330
1F
100
AcDbEntity
  8
0
  6
Continuous
 62
     7
100
AcDbLine
 10
71.51789275869771
 20
236.617903700935
 30
0.0
 11
71.60589275869779
 21
236.6029783278006
 31
0.0
  0
LINE
  5
1B2
330
1F
100
AcDbEntity
  8
0
  6
Continuous
 62
     7
100
AcDbLine
 10
71.64589275869776
 20
236.3790977307858
 30
0.0
 11
71.64589275869776
 21
236.4188987258106
 31
0.0
  0
LINE
  5
1B3
330
1F
100
AcDbEntity
  8
0
  6
Continuous
 62
     7
100
AcDbLine
 10
71.58589275869781
 20
236.5184012133728
 30
0.0
 11
71.55389275869777
 21
236.5333265865072
 31
0.0
  0
LINE
  5
1B4
330
1F
100
AcDbEntity
  8
0
  6
Continuous
 62
     7
100
AcDbLine
 10
71.55389275869777
 20
236.5333265865072
 30
0.0
 11
71.51789275869783
 21
236.5383017108853
 31
0.0
  0
LINE
  5
1B5
330
1F
100
AcDbEntity
  8
0
  6
Continuous
 62
     7
100
AcDbLine
 10
71.64589275869776
 20
236.4188987258106
 30
0.0
 11
71.63389275869781
 21
236.4586997208355
 31
0.0
  0
LINE
  5
1B6
330
1F
100
AcDbEntity
  8
0
  6
Continuous
 62
     7
100
AcDbLine
 10
71.63189275869775
 20
233.4487494720792
 30
0.0
 11
71.61189275869776
 21
233.4885504671042
 31
0.0
  0
LINE
  5
1B7
330
1F
100
AcDbEntity
  8
0
  6
Continuous
 62
     7
100
AcDbLine
 10
71.6438927586978
 20
233.3989982282982
 30
0.0
 11
71.63189275869775
 21
233.4487494720792
 31
0.0
  0
LINE
  5
1B8
330
1F
100
AcDbEntity
  8
0
  6
Continuous
 62
     7
100
AcDbLine
 10
71.64789275869771
 20
233.3492469845171
 30
0.0
 11
71.6438927586978
 21
233.3989982282982
 31
0.0
  0
LINE
  5
1B9
330
1F
100
AcDbEntity
  8
0
  6
Continuous
 62
     7
100
AcDbLine
 10
71.63989275869778
 20
233.2845703676017
 30
0.0
 11
71.64789275869771
 21
233.3492469845171
 31
0.0
  0
LINE
  5
1BA
330
1F
100
AcDbEntity
  8
0
  6
Continuous
 62
     7
100
AcDbLine
 10
71.63789275869772
 20
235.1079534521788
 30
0.0
 11
71.63389275869781
 21
235.0084509646166
 31
0.0
  0
LINE
  5
1BB
330
1F
100
AcDbEntity
  8
0
  6
Continuous
 62
     7
100
AcDbLine
 10
71.55789275869779
 20
235.1079534521788
 30
0.0
 11
71.63789275869772
 21
235.1079534521788
 31
0.0
  0
LINE
  5
1BC
330
1F
100
AcDbEntity
  8
0
  6
Continuous
 62
     7
100
AcDbLine
 10
71.61989275869769
 20
231.7049683775519
 30
0.0
 11
71.63589275869776
 21
231.7348191238205
 31
0.0
  0
LINE
  5
1BD
330
1F
100
AcDbEntity
  8
0
  6
Continuous
 62
     7
100
AcDbLine
 10
71.63589275869776
 20
231.9487494720792
 30
0.0
 11
71.60789275869774
 21
231.9985007158603
 31
0.0
  0
LINE
  5
1BE
330
1F
100
AcDbEntity
  8
0
  6
Continuous
 62
     7
100
AcDbLine
 10
71.64789275869771
 20
231.8790977307858
 30
0.0
 11
71.63589275869776
 21
231.9487494720792
 31
0.0
  0
LINE
  5
1BF
330
1F
100
AcDbEntity
  8
0
  6
Continuous
 62
     7
100
AcDbLine
 10
71.52989275869777
 20
234.89402310392
 30
0.0
 11
71.54989275869775
 21
234.9985007158603
 31
0.0
  0
LINE
  5
1C0
330
1F
100
AcDbEntity
  8
0
  6
Continuous
 62
     7
100
AcDbLine
 10
71.61789275869774
 20
236.0606897705868
 30
0.0
 11
71.59389275869773
 21
236.1004907656116
 31
0.0
  0
LINE
  5
1C1
330
1F
100
AcDbEntity
  8
0
  6
Continuous
 62
     7
100
AcDbLine
 10
71.62189275869775
 20
236.0109385268057
 30
0.0
 11
71.61789275869774
 21
236.0606897705868
 31
0.0
  0
LINE
  5
1C2
330
1F
100
AcDbEntity
  8
0
  6
Continuous
 62
     7
100
AcDbLine
 10
71.61789275869774
 20
235.9661624074027
 30
0.0
 11
71.62189275869775
 21
236.0109385268057
 31
0.0
  0
LINE
  5
1C3
330
1F
100
AcDbEntity
  8
0
  6
Continuous
 62
     7
100
AcDbLine
 10
71.59389275869773
 20
235.9263614123778
 30
0.0
 11
71.61789275869774
 21
235.9661624074027
 31
0.0
  0
LINE
  5
1C4
330
1F
100
AcDbEntity
  8
0
  6
Continuous
 62
     7
100
AcDbLine
 10
71.6538927586978
 20
235.8666599198404
 30
0.0
 11
71.59789275869775
 21
235.8218838004375
 31
0.0
  0
LINE
  5
1C5
330
1F
100
AcDbEntity
  8
0
  6
Continuous
 62
     7
100
AcDbLine
 10
71.5618927586977
 20
236.1303415118802
 30
0.0
 11
71.51789275869771
 21
236.1353166362584
 31
0.0
  0
LINE
  5
1C6
330
1F
100
AcDbEntity
  8
0
  6
Continuous
 62
     7
100
AcDbLine
 10
71.59389275869773
 20
236.1004907656116
 30
0.0
 11
71.5618927586977
 21
236.1303415118802
 31
0.0
  0
LINE
  5
1C7
330
1F
100
AcDbEntity
  8
0
  6
Continuous
 62
     7
100
AcDbLine
 10
71.5618927586977
 20
235.8965106661092
 30
0.0
 11
71.59389275869773
 21
235.9263614123778
 31
0.0
  0
LINE
  5
1C8
330
1F
100
AcDbEntity
  8
0
  6
Continuous
 62
     7
100
AcDbLine
 10
71.51789275869783
 20
235.8865604173529
 30
0.0
 11
71.5618927586977
 21
235.8965106661092
 31
0.0
  0
LINE
  5
1C9
330
1F
100
AcDbEntity
  8
0
  6
Continuous
 62
     7
100
AcDbLine
 10
71.59789275869775
 20
235.8218838004375
 30
0.0
 11
71.52189275869773
 21
235.8069584273032
 31
0.0
  0
LINE
  5
1CA
330
1F
100
AcDbEntity
  8
0
  6
Continuous
 62
     7
100
AcDbLine
 10
71.66189275869783
 20
236.2049683775519
 30
0.0
 11
71.6098927586977
 21
236.1751176312833
 31
0.0
  0
LINE
  5
1CB
330
1F
100
AcDbEntity
  8
0
  6
Continuous
 62
     7
100
AcDbLine
 10
71.6538927586978
 20
236.1502420093927
 30
0.0
 11
71.68189275869781
 21
236.115416138746
 31
0.0
  0
LINE
  5
1CC
330
1F
100
AcDbEntity
  8
0
  6
Continuous
 62
     7
100
AcDbLine
 10
71.68189275869781
 20
236.115416138746
 30
0.0
 11
71.69789275869778
 21
236.070640019343
 31
0.0
  0
LINE
  5
1CD
330
1F
100
AcDbEntity
  8
0
  6
Continuous
 62
     7
100
AcDbLine
 10
71.69789275869778
 20
236.070640019343
 30
0.0
 11
71.7018927586978
 21
236.0159136511838
 31
0.0
  0
LINE
  5
1CE
330
1F
100
AcDbEntity
  8
0
  6
Continuous
 62
     7
100
AcDbLine
 10
71.7018927586978
 20
236.0159136511838
 30
0.0
 11
71.68989275869774
 21
235.9363116611339
 31
0.0
  0
LINE
  5
1CF
330
1F
100
AcDbEntity
  8
0
  6
Continuous
 62
     7
100
AcDbLine
 10
71.69789275869778
 20
236.2497444969549
 30
0.0
 11
71.66189275869783
 21
236.2049683775519
 31
0.0
  0
LINE
  5
1D0
330
1F
100
AcDbEntity
  8
0
  6
Continuous
 62
     7
100
AcDbLine
 10
71.68989275869774
 20
235.9363116611339
 30
0.0
 11
71.6538927586978
 21
235.8666599198404
 31
0.0
  0
LINE
  5
1D1
330
1F
100
AcDbEntity
  8
0
  6
Continuous
 62
     7
100
AcDbLine
 10
71.7258927586978
 20
236.3741226064077
 30
0.0
 11
71.72189275869778
 21
236.3094459894922
 31
0.0
  0
LINE
  5
1D2
330
1F
100
AcDbEntity
  8
0
  6
Continuous
 62
     7
100
AcDbLine
 10
71.71389275869774
 20
236.4736250939697
 30
0.0
 11
71.7258927586978
 21
236.3741226064077
 31
0.0
  0
LINE
  5
1D3
330
1F
100
AcDbEntity
  8
0
  6
Continuous
 62
     7
100
AcDbLine
 10
71.72189275869778
 20
236.3094459894922
 30
0.0
 11
71.69789275869778
 21
236.2497444969549
 31
0.0
  0
LINE
  5
1D4
330
1F
100
AcDbEntity
  8
0
  6
Continuous
 62
     7
100
AcDbLine
 10
71.63589275869776
 20
231.7348191238205
 30
0.0
 11
71.71589275869769
 21
231.7198937506863
 31
0.0
  0
LINE
  5
1D5
330
1F
100
AcDbEntity
  8
0
  6
Continuous
 62
     7
100
AcDbLine
 10
71.7258927586978
 20
234.4164111636216
 30
0.0
 11
71.7258927586978
 21
234.3169086760593
 31
0.0
  0
LINE
  5
1D6
330
1F
100
AcDbEntity
  8
0
  6
Continuous
 62
     7
100
AcDbLine
 10
71.70389275869775
 20
227.4935255914823
 30
0.0
 11
71.67589275869773
 21
227.4387992233231
 31
0.0
  0
LINE
  5
1D7
330
1F
100
AcDbEntity
  8
0
  6
Continuous
 62
     7
100
AcDbLine
 10
71.67589275869773
 20
227.4387992233231
 30
0.0
 11
71.63189275869775
 21
227.3840728551639
 31
0.0
  0
LINE
  5
1D8
330
1F
100
AcDbEntity
  8
0
  6
Continuous
 62
     7
100
AcDbLine
 10
71.62789275869773
 20
226.9910380292932
 30
0.0
 11
71.63589275869776
 21
227.0557146462085
 31
0.0
  0
LINE
  5
1D9
330
1F
100
AcDbEntity
  8
0
  6
Continuous
 62
     7
100
AcDbLine
 10
71.63589275869776
 20
227.0557146462085
 30
0.0
 11
71.71589275869769
 21
227.0407892730743
 31
0.0
  0
LINE
  5
1DA
330
1F
100
AcDbEntity
  8
0
  6
Continuous
 62
     7
100
AcDbLine
 10
71.60389275869773
 20
226.9363116611339
 30
0.0
 11
71.62789275869773
 21
226.9910380292932
 31
0.0
  0
LINE
  5
1DB
330
1F
100
AcDbEntity
  8
0
  6
Continuous
 62
     7
100
AcDbLine
 10
71.71589275869769
 20
227.0407892730743
 30
0.0
 11
71.69989275869773
 21
226.9462619098902
 31
0.0
  0
LINE
  5
1DC
330
1F
100
AcDbEntity
  8
0
  6
Continuous
 62
     7
100
AcDbLine
 10
71.69989275869773
 20
226.9462619098902
 30
0.0
 11
71.65589275869775
 21
226.8716350442186
 31
0.0
  0
LINE
  5
1DD
330
1F
100
AcDbEntity
  8
0
  6
Continuous
 62
     7
100
AcDbLine
 10
71.65589275869775
 20
226.8716350442186
 30
0.0
 11
71.5958927586978
 21
226.8268589248156
 31
0.0
  0
LINE
  5
1DE
330
1F
100
AcDbEntity
  8
0
  6
Continuous
 62
     7
100
AcDbLine
 10
71.5998927586977
 20
225.5905405168554
 30
0.0
 11
71.63589275869776
 21
225.6104410143679
 31
0.0
  0
LINE
  5
1DF
330
1F
100
AcDbEntity
  8
0
  6
Continuous
 62
     7
100
AcDbLine
 10
71.63589275869776
 20
225.6104410143679
 30
0.0
 11
71.63589275869776
 21
225.5159136511838
 31
0.0
  0
LINE
  5
1E0
330
1F
100
AcDbEntity
  8
0
  6
Continuous
 62
     7
100
AcDbLine
 10
82.27933066426579
 20
238.7624310641191
 30
0.0
 11
72.61933066426582
 21
238.7624310641191
 31
0.0
  0
LINE
  5
1E1
330
1F
100
AcDbEntity
  8
0
  6
Continuous
 62
     7
100
AcDbLine
 10
82.28933066426578
 20
238.7624310641191
 30
0.0
 11
82.27933066426579
 21
238.7624310641191
 31
0.0
  0
LINE
  5
1E2
330
1F
100
AcDbEntity
  8
0
  6
Continuous
 62
     7
100
AcDbLine
 10
84.32933066426574
 20
238.7624310641191
 30
0.0
 11
82.28933066426578
 21
238.7624310641191
 31
0.0
  0
LINE
  5
1E3
330
1F
100
AcDbEntity
  8
0
  6
Continuous
 62
     7
100
AcDbLine
 10
84.32933066426574
 20
238.6624310641191
 30
0.0
 11
83.52933066426567
 21
238.6624310641191
 31
0.0
  0
LINE
  5
1E4
330
1F
100
AcDbEntity
  8
0
  6
Continuous
 62
     7
100
AcDbLine
 10
82.27933066426579
 20
235.1624310641191
 30
0.0
 11
82.27933066426579
 21
237.0624310641191
 31
0.0
  0
LINE
  5
1E5
330
1F
100
AcDbEntity
  8
0
  6
Continuous
 62
     7
100
AcDbLine
 10
82.27933066426579
 20
237.462431064119
 30
0.0
 11
82.27933066426579
 21
238.7624310641191
 31
0.0
  0
LINE
  5
1E6
330
1F
100
AcDbEntity
  8
0
  6
Continuous
 62
     7
100
AcDbLine
 10
82.27933066426579
 20
237.0624310641191
 30
0.0
 11
82.27933066426579
 21
237.462431064119
 31
0.0
  0
LINE
  5
1E7
330
1F
100
AcDbEntity
  8
0
  6
Continuous
 62
     7
100
AcDbLine
 10
84.32933066426574
 20
235.8624310641191
 30
0.0
 11
84.32933066426574
 21
235.1624310641191
 31
0.0
  0
LINE
  5
1E8
330
1F
100
AcDbEntity
  8
0
  6
Continuous
 62
     7
100
AcDbLine
 10
84.32933066426574
 20
235.0624310641195
 30
0.0
 11
84.32933066426574
 21
235.1624310641191
 31
0.0
  0
LINE
  5
1E9
330
1F
100
AcDbEntity
  8
0
  6
Continuous
 62
     7
100
AcDbLine
 10
84.32933066426574
 20
238.7624310641191
 30
0.0
 11
84.32933066426574
 21
238.6624310641191
 31
0.0
  0
LINE
  5
1EA
330
1F
100
AcDbEntity
  8
0
  6
Continuous
 62
     7
100
AcDbLine
 10
84.32933066426574
 20
235.1624310641191
 30
0.0
 11
82.27933066426579
 21
235.1624310641191
 31
0.0
  0
LINE
  5
1EB
330
1F
100
AcDbEntity
  8
0
  6
Continuous
 62
     7
100
AcDbLine
 10
81.12933066426581
 20
232.9874310641191
 30
0.0
 11
84.32933066426574
 21
232.9874310641191
 31
0.0
  0
LINE
  5
1EC
330
1F
100
AcDbEntity
  8
0
  6
Continuous
 62
     7
100
AcDbLine
 10
83.52933066426567
 20
237.462431064119
 30
0.0
 11
82.27933066426579
 21
237.462431064119
 31
0.0
  0
LINE
  5
1ED
330
1F
100
AcDbEntity
  8
0
  6
Continuous
 62
     7
100
AcDbLine
 10
82.27933066426579
 20
237.0624310641191
 30
0.0
 11
83.52933066426567
 21
237.0624310641191
 31
0.0
  0
LINE
  5
1EE
330
1F
100
AcDbEntity
  8
0
  6
Continuous
 62
     7
100
AcDbLine
 10
81.12933066426581
 20
232.9874310641191
 30
0.0
 11
81.12933066426581
 21
236.9374310641191
 31
0.0
  0
LINE
  5
1EF
330
1F
100
AcDbEntity
  8
0
  6
Continuous
 62
     7
100
AcDbLine
 10
83.52933066426567
 20
235.8624310641191
 30
0.0
 11
83.52933066426567
 21
237.0624310641191
 31
0.0
  0
LINE
  5
1F0
330
1F
100
AcDbEntity
  8
0
  6
Continuous
 62
     7
100
AcDbLine
 10
83.52933066426567
 20
237.0624310641191
 30
0.0
 11
83.52933066426567
 21
237.462431064119
 31
0.0
  0
LINE
  5
1F1
330
1F
100
AcDbEntity
  8
0
  6
Continuous
 62
     7
100
AcDbLine
 10
84.32933066426574
 20
235.8624310641191
 30
0.0
 11
84.32933066426574
 21
238.6624310641191
 31
0.0
  0
LINE
  5
1F2
330
1F
100
AcDbEntity
  8
0
  6
Continuous
 62
     7
100
AcDbLine
 10
85.11645485312977
 20
235.0624310641195
 30
0.0
 11
85.11645485312977
 21
239.312431064119
 31
0.0
  0
LINE
  5
1F3
330
1F
100
AcDbEntity
  8
0
  6
Continuous
 62
     7
100
AcDbLine
 10
84.32933066426574
 20
235.8624310641191
 30
0.0
 11
83.52933066426567
 21
235.8624310641191
 31
0.0
  0
LINE
  5
1F4
330
1F
100
AcDbEntity
  8
0
  6
Continuous
 62
     7
100
AcDbLine
 10
83.52933066426567
 20
237.462431064119
 30
0.0
 11
83.52933066426567
 21
238.6624310641191
 31
0.0
  0
LINE
  5
1F5
330
1F
100
AcDbEntity
  8
0
  6
Continuous
 62
     7
100
AcDbLine
 10
84.32933066426574
 20
228.9374310641191
 30
0.0
 11
81.12933066426581
 21
228.9374310641191
 31
0.0
  0
LINE
  5
1F6
330
1F
100
AcDbEntity
  8
0
  6
Continuous
 62
     7
100
AcDbLine
 10
81.12933066426581
 20
232.9874310641191
 30
0.0
 11
81.12933066426581
 21
228.9374310641191
 31
0.0
  0
LINE
  5
1F7
330
1F
100
AcDbEntity
  8
0
  6
Continuous
 62
     7
100
AcDbLine
 10
85.11645485312977
 20
239.6124310641193
 30
0.0
 11
86.01645485312974
 21
239.6124310641193
 31
0.0
  0
LINE
  5
1F8
330
1F
100
AcDbEntity
  8
0
  6
Continuous
 62
     7
100
AcDbLine
 10
86.01645485312974
 20
239.6124310641193
 30
0.0
 11
86.01645485312974
 21
240.6124310641193
 31
0.0
  0
LINE
  5
1F9
330
1F
100
AcDbEntity
  8
0
  6
Continuous
 62
     7
100
AcDbLine
 10
86.01645485312974
 20
240.6124310641193
 30
0.0
 11
85.11645485312977
 21
240.6124310641193
 31
0.0
  0
LINE
  5
1FA
330
1F
100
AcDbEntity
  8
0
  6
Continuous
 62
     7
100
AcDbLine
 10
86.01645485312974
 20
241.3124310641193
 30
0.0
 11
85.11645485312977
 21
241.3124310641193
 31
0.0
  0
LINE
  5
1FB
330
1F
100
AcDbEntity
  8
0
  6
Continuous
 62
     7
100
AcDbLine
 10
73.96645485312979
 20
240.8124310641192
 30
0.0
 11
77.31433066426575
 21
240.812431064119
 31
0.0
  0
LINE
  5
1FC
330
1F
100
AcDbEntity
  8
0
  6
Continuous
 62
     7
100
AcDbLine
 10
85.11645485312977
 20
242.3124310641193
 30
0.0
 11
86.01645485312974
 21
242.3124310641193
 31
0.0
  0
LINE
  5
1FD
330
1F
100
AcDbEntity
  8
0
  6
Continuous
 62
     7
100
AcDbLine
 10
77.31433066426575
 20
241.8124310641191
 30
0.0
 11
77.31433066426575
 21
240.812431064119
 31
0.0
  0
LINE
  5
1FE
330
1F
100
AcDbEntity
  8
0
  6
Continuous
 62
     7
100
AcDbLine
 10
86.01645485312974
 20
242.3124310641193
 30
0.0
 11
86.01645485312974
 21
241.3124310641193
 31
0.0
  0
LINE
  5
1FF
330
1F
100
AcDbEntity
  8
0
  6
Continuous
 62
     7
100
AcDbLine
 10
81.56645485312993
 20
241.8124310641192
 30
0.0
 11
77.31433066426575
 21
241.8124310641191
 31
0.0
  0
LINE
  5
200
330
1F
100
AcDbEntity
  8
0
  6
Continuous
 62
     7
100
AcDbLine
 10
71.41645485313018
 20
238.9624310641193
 30
0.0
 11
71.41645485313018
 21
242.9624310641194
 31
0.0
  0
LINE
  5
201
330
1F
100
AcDbEntity
  8
0
  6
Continuous
 62
     7
100
AcDbLine
 10
71.3598927586977
 20
232.0184012133728
 30
0.0
 11
71.43189275869781
 21
232.0930280790444
 31
0.0
  0
LINE
  5
202
330
1F
100
AcDbEntity
  8
0
  6
Continuous
 62
     7
100
AcDbLine
 10
71.36789275869774
 20
231.6452668850146
 30
0.0
 11
71.32389275869775
 21
231.7298439994425
 31
0.0
  0
LINE
  5
203
330
1F
100
AcDbEntity
  8
0
  6
Continuous
 62
     7
100
AcDbLine
 10
71.43189275869781
 20
231.5905405168554
 30
0.0
 11
71.36789275869774
 21
231.6452668850146
 31
0.0
  0
LINE
  5
204
330
1F
100
AcDbEntity
  8
0
  6
Continuous
 62
     7
100
AcDbLine
 10
71.32389275869775
 20
231.933824098945
 30
0.0
 11
71.3598927586977
 21
232.0184012133728
 31
0.0
  0
LINE
  5
205
330
1F
100
AcDbEntity
  8
0
  6
Continuous
 62
     7
100
AcDbLine
 10
71.30789275869779
 20
231.8293464870046
 30
0.0
 11
71.32389275869775
 21
231.933824098945
 31
0.0
  0
LINE
  5
206
330
1F
100
AcDbEntity
  8
0
  6
Continuous
 62
     7
100
AcDbLine
 10
71.31589275869771
 20
228.804470865114
 30
0.0
 11
71.30789275869779
 21
228.8741226064077
 31
0.0
  0
LINE
  5
207
330
1F
100
AcDbEntity
  8
0
  6
Continuous
 62
     7
100
AcDbLine
 10
71.33989275869772
 20
228.7447693725768
 30
0.0
 11
71.31589275869771
 21
228.804470865114
 31
0.0
  0
LINE
  5
208
330
1F
100
AcDbEntity
  8
0
  6
Continuous
 62
     7
100
AcDbLine
 10
71.47189275869778
 20
229.0283514621291
 30
0.0
 11
71.4278927586978
 21
228.9935255914823
 31
0.0
  0
LINE
  5
209
330
1F
100
AcDbEntity
  8
0
  6
Continuous
 62
     7
100
AcDbLine
 10
71.38922824516033
 20
230.4221428677479
 30
0.0
 11
71.38922824516033
 21
230.6111975941161
 31
0.0
  0
LINE
  5
20A
330
1F
100
AcDbEntity
  8
0
  6
Continuous
 62
     7
100
AcDbLine
 10
71.38922824516033
 20
230.6111975941161
 30
0.0
 11
71.46922824516025
 21
230.6111975941161
 31
0.0
  0
LINE
  5
20B
330
1F
100
AcDbEntity
  8
0
  6
Continuous
 62
     7
100
AcDbLine
 10
71.42389275869778
 20
233.2248688750644
 30
0.0
 11
71.46789275869776
 21
233.1900430044176
 31
0.0
  0
LINE
  5
20C
330
1F
100
AcDbEntity
  8
0
  6
Continuous
 62
     7
100
AcDbLine
 10
71.39589275869776
 20
233.2845703676017
 30
0.0
 11
71.42389275869778
 21
233.2248688750644
 31
0.0
  0
LINE
  5
20D
330
1F
100
AcDbEntity
  8
0
  6
Continuous
 62
     7
100
AcDbLine
 10
71.31989275869773
 20
233.2497444969549
 30
0.0
 11
71.30389275869777
 21
233.3492469845171
 31
0.0
  0
LINE
  5
20E
330
1F
100
AcDbEntity
  8
0
  6
Continuous
 62
     7
100
AcDbLine
 10
71.45322824516029
 20
229.8151776936186
 30
0.0
 11
71.38922824516033
 21
229.8151776936186
 31
0.0
  0
LINE
  5
20F
330
1F
100
AcDbEntity
  8
0
  6
Continuous
 62
     7
100
AcDbLine
 10
71.38922824516033
 20
229.8151776936186
 30
0.0
 11
71.38922824516033
 21
230.332590628942
 31
0.0
  0
LINE
  5
210
330
1F
100
AcDbEntity
  8
0
  6
Continuous
 62
     7
100
AcDbLine
 10
71.42389275869778
 20
231.7049683775519
 30
0.0
 11
71.46789275869776
 21
231.6701425069052
 31
0.0
  0
LINE
  5
211
330
1F
100
AcDbEntity
  8
0
  6
Continuous
 62
     7
100
AcDbLine
 10
71.39989275869777
 20
231.7646698700893
 30
0.0
 11
71.42389275869778
 21
231.7049683775519
 31
0.0
  0
LINE
  5
212
330
1F
100
AcDbEntity
  8
0
  6
Continuous
 62
     7
100
AcDbLine
 10
71.38789275869772
 20
231.8392967357609
 30
0.0
 11
71.39989275869777
 21
231.7646698700893
 31
0.0
  0
LINE
  5
213
330
1F
100
AcDbEntity
  8
0
  6
Continuous
 62
     7
100
AcDbLine
 10
71.39989275869777
 20
231.9238738501888
 30
0.0
 11
71.38789275869772
 21
231.8392967357609
 31
0.0
  0
LINE
  5
214
330
1F
100
AcDbEntity
  8
0
  6
Continuous
 62
     7
100
AcDbLine
 10
71.33989275869772
 20
231.3119335516813
 30
0.0
 11
71.33989275869772
 21
231.4114360392435
 31
0.0
  0
LINE
  5
215
330
1F
100
AcDbEntity
  8
0
  6
Continuous
 62
     7
100
AcDbLine
 10
71.32389275869775
 20
231.7298439994425
 30
0.0
 11
71.30789275869779
 21
231.8293464870046
 31
0.0
  0
LINE
  5
216
330
1F
100
AcDbEntity
  8
0
  6
Continuous
 62
     7
100
AcDbLine
 10
71.42789275869768
 20
231.9835753427261
 30
0.0
 11
71.39989275869777
 21
231.9238738501888
 31
0.0
  0
LINE
  5
217
330
1F
100
AcDbEntity
  8
0
  6
Continuous
 62
     7
100
AcDbLine
 10
71.46922824516025
 20
230.332590628942
 30
0.0
 11
71.46922824516025
 21
229.9793567980962
 31
0.0
  0
LINE
  5
218
330
1F
100
AcDbEntity
  8
0
  6
Continuous
 62
     7
100
AcDbLine
 10
71.46922824516025
 20
230.6111975941161
 30
0.0
 11
71.46922824516025
 21
230.4221428677479
 31
0.0
  0
LINE
  5
219
330
1F
100
AcDbEntity
  8
0
  6
Continuous
 62
     7
100
AcDbLine
 10
71.30389275869777
 20
233.3492469845171
 30
0.0
 11
71.3118927586977
 21
233.4238738501888
 31
0.0
  0
LINE
  5
21A
330
1F
100
AcDbEntity
  8
0
  6
Continuous
 62
     7
100
AcDbLine
 10
71.38389275869781
 20
233.3542221088952
 30
0.0
 11
71.39589275869776
 21
233.2845703676017
 31
0.0
  0
LINE
  5
21B
330
1F
100
AcDbEntity
  8
0
  6
Continuous
 62
     7
100
AcDbLine
 10
71.30789275869779
 20
227.5134260889947
 30
0.0
 11
71.30789275869779
 21
227.6129285765569
 31
0.0
  0
LINE
  5
21C
330
1F
100
AcDbEntity
  8
0
  6
Continuous
 62
     7
100
AcDbLine
 10
71.55589275869772
 20
227.4288489745669
 30
0.0
 11
71.58789275869776
 21
227.4636748452136
 31
0.0
  0
LINE
  5
21D
330
1F
100
AcDbEntity
  8
0
  6
Continuous
 62
     7
100
AcDbLine
 10
71.5238927586978
 20
231.6552171337708
 30
0.0
 11
71.56389275869776
 21
231.6651673825271
 31
0.0
  0
LINE
  5
21E
330
1F
100
AcDbEntity
  8
0
  6
Continuous
 62
     7
100
AcDbLine
 10
71.43189275869781
 20
232.0930280790444
 30
0.0
 11
71.52789275869782
 21
232.1129285765569
 31
0.0
  0
LINE
  5
21F
330
1F
100
AcDbEntity
  8
0
  6
Continuous
 62
     7
100
AcDbLine
 10
71.46789275869776
 20
233.1900430044176
 30
0.0
 11
71.51589275869776
 21
233.1751176312833
 31
0.0
  0
LINE
  5
220
330
1F
100
AcDbEntity
  8
0
  6
Continuous
 62
     7
100
AcDbLine
 10
71.52789275869782
 20
232.0333265865072
 30
0.0
 11
71.4758927586978
 21
232.0233763377509
 31
0.0
  0
LINE
  5
221
330
1F
100
AcDbEntity
  8
0
  6
Continuous
 62
     7
100
AcDbLine
 10
71.5718927586978
 20
231.5855653924773
 30
0.0
 11
71.50789275869772
 21
231.570640019343
 31
0.0
  0
LINE
  5
222
330
1F
100
AcDbEntity
  8
0
  6
Continuous
 62
     7
100
AcDbLine
 10
71.50789275869772
 20
231.570640019343
 30
0.0
 11
71.43189275869781
 21
231.5905405168554
 31
0.0
  0
LINE
  5
223
330
1F
100
AcDbEntity
  8
0
  6
Continuous
 62
     7
100
AcDbLine
 10
71.4758927586978
 20
232.0233763377509
 30
0.0
 11
71.42789275869768
 21
231.9835753427261
 31
0.0
  0
LINE
  5
224
330
1F
100
AcDbEntity
  8
0
  6
Continuous
 62
     7
100
AcDbLine
 10
71.46789275869776
 20
231.6701425069052
 30
0.0
 11
71.5238927586978
 21
231.6552171337708
 31
0.0
  0
LINE
  5
225
330
1F
100
AcDbEntity
  8
0
  6
Continuous
 62
     7
100
AcDbLine
 10
71.51589275869776
 20
233.1751176312833
 30
0.0
 11
71.56789275869778
 21
233.1900430044176
 31
0.0
  0
LINE
  5
226
330
1F
100
AcDbEntity
  8
0
  6
Continuous
 62
     7
100
AcDbLine
 10
71.5718927586978
 20
232.0283514621291
 30
0.0
 11
71.52789275869782
 21
232.0333265865072
 31
0.0
  0
LINE
  5
227
330
1F
100
AcDbEntity
  8
0
  6
Continuous
 62
     7
100
AcDbLine
 10
71.58789275869776
 20
227.4636748452136
 30
0.0
 11
71.60789275869774
 21
227.4885504671042
 31
0.0
  0
LINE
  5
228
330
1F
100
AcDbEntity
  8
0
  6
Continuous
 62
     7
100
AcDbLine
 10
71.60789275869774
 20
231.9985007158603
 30
0.0
 11
71.5718927586978
 21
232.0283514621291
 31
0.0
  0
LINE
  5
229
330
1F
100
AcDbEntity
  8
0
  6
Continuous
 62
     7
100
AcDbLine
 10
71.56389275869776
 20
231.6651673825271
 30
0.0
 11
71.59189275869778
 21
231.6800927556614
 31
0.0
  0
LINE
  5
22A
330
1F
100
AcDbEntity
  8
0
  6
Continuous
 62
     7
100
AcDbLine
 10
71.33989275869772
 20
231.4114360392435
 30
0.0
 11
71.5958927586978
 21
231.4114360392435
 31
0.0
  0
LINE
  5
22B
330
1F
100
AcDbEntity
  8
0
  6
Continuous
 62
     7
100
AcDbLine
 10
71.62389275869782
 20
227.5134260889947
 30
0.0
 11
71.30789275869779
 21
227.5134260889947
 31
0.0
  0
LINE
  5
22C
330
1F
100
AcDbEntity
  8
0
  6
Continuous
 62
     7
100
AcDbLine
 10
71.52789275869782
 20
232.1129285765569
 30
0.0
 11
71.60789275869774
 21
232.0980032034226
 31
0.0
  0
LINE
  5
22D
330
1F
100
AcDbEntity
  8
0
  6
Continuous
 62
     7
100
AcDbLine
 10
71.59189275869778
 20
231.6800927556614
 30
0.0
 11
71.61989275869769
 21
231.7049683775519
 31
0.0
  0
LINE
  5
22E
330
1F
100
AcDbEntity
  8
0
  6
Continuous
 62
     7
100
AcDbLine
 10
70.41645485312972
 20
243.9624310641194
 30
0.0
 11
70.41645485312972
 21
245.9624310641194
 31
0.0
  0
LINE
  5
22F
330
1F
100
AcDbEntity
  8
0
  6
Continuous
 62
     7
100
AcDbLine
 10
71.5518927586977
 20
233.5333265865072
 30
0.0
 11
71.51189275869774
 21
233.5383017108853
 31
0.0
  0
LINE
  5
230
330
1F
100
AcDbEntity
  8
0
  6
Continuous
 62
     7
100
AcDbLine
 10
71.51189275869774
 20
233.5383017108853
 30
0.0
 11
71.46389275869774
 21
233.5283514621291
 31
0.0
  0
LINE
  5
231
330
1F
100
AcDbEntity
  8
0
  6
Continuous
 62
     7
100
AcDbLine
 10
71.46389275869774
 20
233.5283514621291
 30
0.0
 11
71.42389275869778
 21
233.4885504671042
 31
0.0
  0
LINE
  5
232
330
1F
100
AcDbEntity
  8
0
  6
Continuous
 62
     7
100
AcDbLine
 10
71.42389275869778
 20
233.4885504671042
 30
0.0
 11
71.39589275869776
 21
233.433824098945
 31
0.0
  0
LINE
  5
233
330
1F
100
AcDbEntity
  8
0
  6
Continuous
 62
     7
100
AcDbLine
 10
71.39589275869776
 20
233.433824098945
 30
0.0
 11
71.38389275869781
 21
233.3542221088952
 31
0.0
  0
LINE
  5
234
330
1F
100
AcDbEntity
  8
0
  6
Continuous
 62
     7
100
AcDbLine
 10
71.41389275869778
 20
236.0159136511838
 30
0.0
 11
71.42189275869771
 21
235.9661624074027
 31
0.0
  0
LINE
  5
235
330
1F
100
AcDbEntity
  8
0
  6
Continuous
 62
     7
100
AcDbLine
 10
71.42189275869782
 20
236.0656648949649
 30
0.0
 11
71.41389275869778
 21
236.0159136511838
 31
0.0
  0
LINE
  5
236
330
1F
100
AcDbEntity
  8
0
  6
Continuous
 62
     7
100
AcDbLine
 10
71.4418927586978
 20
236.1004907656116
 30
0.0
 11
71.42189275869782
 21
236.0656648949649
 31
0.0
  0
LINE
  5
237
330
1F
100
AcDbEntity
  8
0
  6
Continuous
 62
     7
100
AcDbLine
 10
71.40189275869773
 20
236.3193962382485
 30
0.0
 11
71.42989275869775
 21
236.2646698700891
 31
0.0
  0
LINE
  5
238
330
1F
100
AcDbEntity
  8
0
  6
Continuous
 62
     7
100
AcDbLine
 10
71.38989275869778
 20
236.3790977307858
 30
0.0
 11
71.40189275869773
 21
236.3193962382485
 31
0.0
  0
LINE
  5
239
330
1F
100
AcDbEntity
  8
0
  6
Continuous
 62
     7
100
AcDbLine
 10
71.40189275869773
 20
236.4437743477012
 30
0.0
 11
71.38989275869778
 21
236.3790977307858
 31
0.0
  0
LINE
  5
23A
330
1F
100
AcDbEntity
  8
0
  6
Continuous
 62
     7
100
AcDbLine
 10
71.42589275869773
 20
236.4935255914823
 30
0.0
 11
71.40189275869773
 21
236.4437743477012
 31
0.0
  0
LINE
  5
23B
330
1F
100
AcDbEntity
  8
0
  6
Continuous
 62
     7
100
AcDbLine
 10
71.47789275869775
 20
235.896510666109
 30
0.0
 11
71.51789275869783
 21
235.8865604173529
 31
0.0
  0
LINE
  5
23C
330
1F
100
AcDbEntity
  8
0
  6
Continuous
 62
     7
100
AcDbLine
 10
71.47389275869773
 20
236.2298439994425
 30
0.0
 11
71.52189275869773
 21
236.2149186263081
 31
0.0
  0
LINE
  5
23D
330
1F
100
AcDbEntity
  8
0
  6
Continuous
 62
     7
100
AcDbLine
 10
71.51789275869783
 20
236.5383017108853
 30
0.0
 11
71.46989275869782
 21
236.5283514621291
 31
0.0
  0
LINE
  5
23E
330
1F
100
AcDbEntity
  8
0
  6
Continuous
 62
     7
100
AcDbLine
 10
71.51789275869771
 20
236.1353166362584
 30
0.0
 11
71.47789275869775
 21
236.1303415118802
 31
0.0
  0
LINE
  5
23F
330
1F
100
AcDbEntity
  8
0
  6
Continuous
 62
     7
100
AcDbLine
 10
71.47789275869775
 20
236.1303415118802
 30
0.0
 11
71.4418927586978
 21
236.1004907656116
 31
0.0
  0
LINE
  5
240
330
1F
100
AcDbEntity
  8
0
  6
Continuous
 62
     7
100
AcDbLine
 10
71.44589275869771
 20
235.9263614123778
 30
0.0
 11
71.47789275869775
 21
235.896510666109
 31
0.0
  0
LINE
  5
241
330
1F
100
AcDbEntity
  8
0
  6
Continuous
 62
     7
100
AcDbLine
 10
71.42189275869771
 20
235.9661624074027
 30
0.0
 11
71.44589275869771
 21
235.9263614123778
 31
0.0
  0
LINE
  5
242
330
1F
100
AcDbEntity
  8
0
  6
Continuous
 62
     7
100
AcDbLine
 10
71.42989275869775
 20
236.2646698700891
 30
0.0
 11
71.47389275869773
 21
236.2298439994425
 31
0.0
  0
LINE
  5
243
330
1F
100
AcDbEntity
  8
0
  6
Continuous
 62
     7
100
AcDbLine
 10
71.46989275869782
 20
236.5283514621291
 30
0.0
 11
71.42589275869773
 21
236.4935255914823
 31
0.0
  0
LINE
  5
244
330
1F
100
AcDbEntity
  8
0
  6
Continuous
 62
     7
100
AcDbLine
 10
70.41645485312972
 20
238.9624310641193
 30
0.0
 11
70.41645485312972
 21
242.9624310641194
 31
0.0
  0
LINE
  5
245
330
1F
100
AcDbEntity
  8
0
  6
Continuous
 62
     7
100
AcDbLine
 10
71.47989275869782
 20
225.3666599198404
 30
0.0
 11
71.4518927586978
 21
225.3119335516813
 31
0.0
  0
LINE
  5
246
330
1F
100
AcDbEntity
  8
0
  6
Continuous
 62
     7
100
AcDbLine
 10
71.5238927586978
 20
225.4213862879996
 30
0.0
 11
71.47989275869782
 21
225.3666599198404
 31
0.0
  0
LINE
  5
247
330
1F
100
AcDbEntity
  8
0
  6
Continuous
 62
     7
100
AcDbLine
 10
71.43189275869781
 20
226.9313365367559
 30
0.0
 11
71.47189275869778
 21
226.9014857904872
 31
0.0
  0
LINE
  5
248
330
1F
100
AcDbEntity
  8
0
  6
Continuous
 62
     7
100
AcDbLine
 10
71.4078927586977
 20
226.9761126561589
 30
0.0
 11
71.43189275869781
 21
226.9313365367559
 31
0.0
  0
LINE
  5
249
330
1F
100
AcDbEntity
  8
0
  6
Continuous
 62
     7
100
AcDbLine
 10
71.39589275869776
 20
227.0258638999399
 30
0.0
 11
71.4078927586977
 21
226.9761126561589
 31
0.0
  0
LINE
  5
24A
330
1F
100
AcDbEntity
  8
0
  6
Continuous
 62
     7
100
AcDbLine
 10
71.4078927586977
 20
227.0855653924773
 30
0.0
 11
71.39589275869776
 21
227.0258638999399
 31
0.0
  0
LINE
  5
24B
330
1F
100
AcDbEntity
  8
0
  6
Continuous
 62
     7
100
AcDbLine
 10
71.43189275869781
 20
227.1452668850146
 30
0.0
 11
71.4078927586977
 21
227.0855653924773
 31
0.0
  0
LINE
  5
24C
330
1F
100
AcDbEntity
  8
0
  6
Continuous
 62
     7
100
AcDbLine
 10
71.36989275869769
 20
236.5532270840195
 30
0.0
 11
71.43789275869779
 21
236.6029783278006
 31
0.0
  0
LINE
  5
24D
330
1F
100
AcDbEntity
  8
0
  6
Continuous
 62
     7
100
AcDbLine
 10
71.42989275869775
 20
236.1751176312833
 30
0.0
 11
71.37789275869773
 21
236.2099435019299
 31
0.0
  0
LINE
  5
24E
330
1F
100
AcDbEntity
  8
0
  6
Continuous
 62
     7
100
AcDbLine
 10
71.38989275869778
 20
236.1502420093927
 30
0.0
 11
71.42989275869775
 21
236.1751176312833
 31
0.0
  0
LINE
  5
24F
330
1F
100
AcDbEntity
  8
0
  6
Continuous
 62
     7
100
AcDbLine
 10
71.43189275869781
 20
228.3368091735718
 30
0.0
 11
71.39589275869776
 21
228.3716350442186
 31
0.0
  0
LINE
  5
250
330
1F
100
AcDbEntity
  8
0
  6
Continuous
 62
     7
100
AcDbLine
 10
71.41989275869776
 20
228.5159136511838
 30
0.0
 11
71.4278927586978
 21
228.4661624074027
 31
0.0
  0
LINE
  5
251
330
1F
100
AcDbEntity
  8
0
  6
Continuous
 62
     7
100
AcDbLine
 10
71.38789275869772
 20
228.8741226064077
 30
0.0
 11
71.39989275869777
 21
228.8144211138703
 31
0.0
  0
LINE
  5
252
330
1F
100
AcDbEntity
  8
0
  6
Continuous
 62
     7
100
AcDbLine
 10
71.4518927586978
 20
225.3119335516813
 30
0.0
 11
71.39989275869777
 21
225.3119335516813
 31
0.0
  0
LINE
  5
253
330
1F
100
AcDbEntity
  8
0
  6
Continuous
 62
     7
100
AcDbLine
 10
70.41645485312972
 20
238.9624310641193
 30
0.0
 11
71.41645485313018
 21
238.9624310641193
 31
0.0
  0
LINE
  5
254
330
1F
100
AcDbEntity
  8
0
  6
Continuous
 62
     7
100
AcDbLine
 10
70.41645485312972
 20
238.9624310641193
 30
0.0
 11
70.41645485312972
 21
238.7624310641191
 31
0.0
  0
LINE
  5
255
330
1F
100
AcDbEntity
  8
0
  6
Continuous
 62
     7
100
AcDbLine
 10
71.41645485313018
 20
242.9624310641194
 30
0.0
 11
70.41645485312972
 21
242.9624310641194
 31
0.0
  0
LINE
  5
256
330
1F
100
AcDbEntity
  8
0
  6
Continuous
 62
     7
100
AcDbLine
 10
77.76645485312883
 20
214.2124310641203
 30
0.0
 11
77.26645485312883
 21
215.5124310641207
 31
0.0
  0
LINE
  5
257
330
1F
100
AcDbEntity
  8
0
  6
Continuous
 62
     7
100
AcDbLine
 10
71.74922824516034
 20
230.332590628942
 30
0.0
 11
71.45322824516029
 21
229.8151776936186
 31
0.0
  0
LINE
  5
258
330
1F
100
AcDbEntity
  8
0
  6
Continuous
 62
     7
100
AcDbLine
 10
71.46922824516025
 20
229.9793567980962
 30
0.0
 11
71.67322824516032
 21
230.332590628942
 31
0.0
  0
LINE
  5
259
330
1F
100
AcDbEntity
  8
0
  6
Continuous
 62
     7
100
AcDbLine
 10
72.61933066426582
 20
238.7624310641191
 30
0.0
 11
70.41645485312972
 21
238.7624310641191
 31
0.0
  0
LINE
  5
25A
330
1F
100
AcDbEntity
  8
0
  6
Continuous
 62
     7
100
AcDbLine
 10
71.55589275869772
 20
225.5606897705868
 30
0.0
 11
71.5998927586977
 21
225.5905405168554
 31
0.0
  0
LINE
  5
25B
330
1F
100
AcDbEntity
  8
0
  6
Continuous
 62
     7
100
AcDbLine
 10
71.5958927586978
 20
226.8268589248156
 30
0.0
 11
71.51189275869774
 21
226.8119335516813
 31
0.0
  0
LINE
  5
25C
330
1F
100
AcDbEntity
  8
0
  6
Continuous
 62
     7
100
AcDbLine
 10
71.56789275869778
 20
226.9064609148654
 30
0.0
 11
71.60389275869773
 21
226.9363116611339
 31
0.0
  0
LINE
  5
25D
330
1F
100
AcDbEntity
  8
0
  6
Continuous
 62
     7
100
AcDbLine
 10
71.51589275869776
 20
226.891535541731
 30
0.0
 11
71.56789275869778
 21
226.9064609148654
 31
0.0
  0
LINE
  5
25E
330
1F
100
AcDbEntity
  8
0
  6
Continuous
 62
     7
100
AcDbLine
 10
71.5718927586978
 20
227.3144211138703
 30
0.0
 11
71.48789275869774
 21
227.2198937506863
 31
0.0
  0
LINE
  5
25F
330
1F
100
AcDbEntity
  8
0
  6
Continuous
 62
     7
100
AcDbLine
 10
71.52989275869777
 20
234.6303415118802
 30
0.0
 11
71.47389275869773
 21
234.5159136511838
 31
0.0
  0
LINE
  5
260
330
1F
100
AcDbEntity
  8
0
  6
Continuous
 62
     7
100
AcDbLine
 10
71.47389275869773
 20
234.5159136511838
 30
0.0
 11
71.40989275869777
 21
234.4164111636216
 31
0.0
  0
LINE
  5
261
330
1F
100
AcDbEntity
  8
0
  6
Continuous
 62
     7
100
AcDbLine
 10
71.43789275869779
 20
234.615416138746
 30
0.0
 11
71.49389275869771
 21
234.754719621333
 31
0.0
  0
LINE
  5
262
330
1F
100
AcDbEntity
  8
0
  6
Continuous
 62
     7
100
AcDbLine
 10
71.49589275869778
 20
233.0905405168554
 30
0.0
 11
71.42389275869778
 21
233.1104410143679
 31
0.0
  0
LINE
  5
263
330
1F
100
AcDbEntity
  8
0
  6
Continuous
 62
     7
100
AcDbLine
 10
71.4278927586978
 20
228.4661624074027
 30
0.0
 11
71.4518927586978
 21
228.4263614123778
 31
0.0
  0
LINE
  5
264
330
1F
100
AcDbEntity
  8
0
  6
Continuous
 62
     7
100
AcDbLine
 10
71.45989275869772
 20
228.615416138746
 30
0.0
 11
71.43189275869781
 21
228.5756151437211
 31
0.0
  0
LINE
  5
265
330
1F
100
AcDbEntity
  8
0
  6
Continuous
 62
     7
100
AcDbLine
 10
71.39989275869777
 20
228.8144211138703
 30
0.0
 11
71.42389275869778
 21
228.7646698700893
 31
0.0
  0
LINE
  5
266
330
1F
100
AcDbEntity
  8
0
  6
Continuous
 62
     7
100
AcDbLine
 10
71.4078927586977
 20
233.5880529546664
 30
0.0
 11
71.4558927586977
 21
233.6079534521788
 31
0.0
  0
LINE
  5
267
330
1F
100
AcDbEntity
  8
0
  6
Continuous
 62
     7
100
AcDbLine
 10
71.4558927586977
 20
233.6079534521788
 30
0.0
 11
71.50789275869772
 21
233.617903700935
 31
0.0
  0
LINE
  5
268
330
1F
100
AcDbEntity
  8
0
  6
Continuous
 62
     7
100
AcDbLine
 10
71.4998927586978
 20
232.8069584273032
 30
0.0
 11
71.43189275869781
 21
232.8218838004375
 31
0.0
  0
LINE
  5
269
330
1F
100
AcDbEntity
  8
0
  6
Continuous
 62
     7
100
AcDbLine
 10
71.4278927586978
 20
232.9313365367559
 30
0.0
 11
71.46389275869774
 21
232.9014857904873
 31
0.0
  0
LINE
  5
26A
330
1F
100
AcDbEntity
  8
0
  6
Continuous
 62
     7
100
AcDbLine
 10
71.46389275869774
 20
232.9014857904873
 30
0.0
 11
71.50789275869772
 21
232.8865604173529
 31
0.0
  0
LINE
  5
26B
330
1F
100
AcDbEntity
  8
0
  6
Continuous
 62
     7
100
AcDbLine
 10
71.43789275869779
 20
236.6029783278006
 30
0.0
 11
71.51789275869771
 21
236.617903700935
 31
0.0
  0
LINE
  5
26C
330
1F
100
AcDbEntity
  8
0
  6
Continuous
 62
     7
100
AcDbLine
 10
71.52189275869773
 20
235.8069584273032
 30
0.0
 11
71.44589275869771
 21
235.8268589248156
 31
0.0
  0
LINE
  5
26D
330
1F
100
AcDbEntity
  8
0
  6
Continuous
 62
     7
100
AcDbLine
 10
71.49389275869771
 20
234.754719621333
 30
0.0
 11
71.52989275869777
 21
234.89402310392
 31
0.0
  0
LINE
  5
26E
330
1F
100
AcDbEntity
  8
0
  6
Continuous
 62
     7
100
AcDbLine
 10
71.67322824516032
 20
230.332590628942
 30
0.0
 11
71.46922824516025
 21
230.332590628942
 31
0.0
  0
LINE
  5
26F
330
1F
100
AcDbEntity
  8
0
  6
Continuous
 62
     7
100
AcDbLine
 10
70.41645485312972
 20
223.1624310641191
 30
0.0
 11
72.61933066426582
 21
223.1624310641191
 31
0.0
  0
LINE
  5
270
330
1F
100
AcDbEntity
  8
0
  6
Continuous
 62
     7
100
AcDbLine
 10
74.66645485313018
 20
215.9624310641189
 30
0.0
 11
74.66645485313018
 21
213.9624310641193
 31
0.0
  0
LINE
  5
271
330
1F
100
AcDbEntity
  8
0
  6
Continuous
 62
     7
100
AcDbLine
 10
70.41645485312972
 20
215.9624310641189
 30
0.0
 11
70.41645485312972
 21
217.9624310641189
 31
0.0
  0
LINE
  5
272
330
1F
100
AcDbEntity
  8
0
  6
Continuous
 62
     7
100
AcDbLine
 10
72.46645485312979
 20
215.9624310641189
 30
0.0
 11
70.41645485312972
 21
215.9624310641189
 31
0.0
  0
LINE
  5
273
330
1F
100
AcDbEntity
  8
0
  6
Continuous
 62
     7
100
AcDbLine
 10
74.32933066426574
 20
236.9374310641191
 30
0.0
 11
74.32933066426574
 21
224.9874310641191
 31
0.0
  0
LINE
  5
274
330
1F
100
AcDbEntity
  8
0
  6
Continuous
 62
     7
100
AcDbLine
 10
80.86645485313011
 20
213.9624310641193
 30
0.0
 11
80.86645485313011
 21
215.9624310641189
 31
0.0
  0
LINE
  5
275
330
1F
100
AcDbEntity
  8
0
  6
Continuous
 62
     7
100
AcDbLine
 10
74.66645485313018
 20
213.9624310641193
 30
0.0
 11
80.86645485313011
 21
213.9624310641193
 31
0.0
  0
LINE
  5
276
330
1F
100
AcDbEntity
  8
0
  6
Continuous
 62
     7
100
AcDbLine
 10
77.26645485312883
 20
215.5124310641207
 30
0.0
 11
78.26645485312883
 21
215.5124310641207
 31
0.0
  0
LINE
  5
277
330
1F
100
AcDbEntity
  8
0
  6
Continuous
 62
     7
100
AcDbLine
 10
78.26645485312883
 20
215.5124310641207
 30
0.0
 11
77.76645485312883
 21
214.2124310641203
 31
0.0
  0
LINE
  5
278
330
1F
100
AcDbEntity
  8
0
  6
Continuous
 62
     7
100
AcDbLine
 10
73.66645485313029
 20
247.9624310641193
 30
0.0
 11
73.66645485313029
 21
245.9624310641194
 31
0.0
  0
LINE
  5
279
330
1F
100
AcDbEntity
  8
0
  6
Continuous
 62
     7
100
AcDbLine
 10
71.5758927586977
 20
225.4761126561589
 30
0.0
 11
71.5238927586978
 21
225.4213862879996
 31
0.0
  0
LINE
  5
27A
330
1F
100
AcDbEntity
  8
0
  6
Continuous
 62
     7
100
AcDbLine
 10
71.43589275869772
 20
226.8318340491937
 30
0.0
 11
71.37189275869775
 21
226.8766101685967
 31
0.0
  0
LINE
  5
27B
330
1F
100
AcDbEntity
  8
0
  6
Continuous
 62
     7
100
AcDbLine
 10
71.38389275869781
 20
227.2248688750644
 30
0.0
 11
71.4278927586978
 21
227.2845703676017
 31
0.0
  0
LINE
  5
27C
330
1F
100
AcDbEntity
  8
0
  6
Continuous
 62
     7
100
AcDbLine
 10
71.48789275869774
 20
227.2198937506863
 30
0.0
 11
71.43189275869781
 21
227.1452668850146
 31
0.0
  0
LINE
  5
27D
330
1F
100
AcDbEntity
  8
0
  6
Continuous
 62
     7
100
AcDbLine
 10
71.4278927586978
 20
227.2845703676017
 30
0.0
 11
71.49589275869778
 21
227.3641723576514
 31
0.0
  0
LINE
  5
27E
330
1F
100
AcDbEntity
  8
0
  6
Continuous
 62
     7
100
AcDbLine
 10
71.37389275869782
 20
234.4960131536713
 30
0.0
 11
71.43789275869779
 21
234.615416138746
 31
0.0
  0
LINE
  5
27F
330
1F
100
AcDbEntity
  8
0
  6
Continuous
 62
     7
100
AcDbLine
 10
71.37189275869775
 20
229.0482519596415
 30
0.0
 11
71.44389275869776
 21
229.1029783278006
 31
0.0
  0
LINE
  5
280
330
1F
100
AcDbEntity
  8
0
  6
Continuous
 62
     7
100
AcDbLine
 10
71.43189275869781
 20
228.6800927556614
 30
0.0
 11
71.37989275869779
 21
228.7049683775519
 31
0.0
  0
LINE
  5
281
330
1F
100
AcDbEntity
  8
0
  6
Continuous
 62
     7
100
AcDbLine
 10
71.39589275869776
 20
228.6552171337708
 30
0.0
 11
71.43189275869781
 21
228.6800927556614
 31
0.0
  0
LINE
  5
282
330
1F
100
AcDbEntity
  8
0
  6
Continuous
 62
     7
100
AcDbLine
 10
71.43189275869781
 20
228.5756151437211
 30
0.0
 11
71.41989275869776
 21
228.5159136511838
 31
0.0
  0
LINE
  5
283
330
1F
100
AcDbEntity
  8
0
  6
Continuous
 62
     7
100
AcDbLine
 10
71.4278927586978
 20
228.9935255914823
 30
0.0
 11
71.39989275869777
 21
228.9387992233231
 31
0.0
  0
LINE
  5
284
330
1F
100
AcDbEntity
  8
0
  6
Continuous
 62
     7
100
AcDbLine
 10
71.44589275869771
 20
235.8268589248156
 30
0.0
 11
71.38589275869776
 21
235.8716350442186
 31
0.0
  0
LINE
  5
285
330
1F
100
AcDbEntity
  8
0
  6
Continuous
 62
     7
100
AcDbLine
 10
71.43189275869781
 20
232.8218838004375
 30
0.0
 11
71.37589275869777
 21
232.8616847954624
 31
0.0
  0
LINE
  5
286
330
1F
100
AcDbEntity
  8
0
  6
Continuous
 62
     7
100
AcDbLine
 10
71.39589275869776
 20
233.0159136511838
 30
0.0
 11
71.41189275869772
 21
232.9711375317807
 31
0.0
  0
LINE
  5
287
330
1F
100
AcDbEntity
  8
0
  6
Continuous
 62
     7
100
AcDbLine
 10
71.41189275869772
 20
232.9711375317807
 30
0.0
 11
71.4278927586978
 21
232.9313365367559
 31
0.0
  0
LINE
  5
288
330
1F
100
AcDbEntity
  8
0
  6
Continuous
 62
     7
100
AcDbLine
 10
71.43169133106437
 20
227.423164298014
 30
0.0
 11
71.49138149586838
 21
227.4881256092122
 31
0.0
  0
LINE
  5
289
330
1F
100
AcDbEntity
  8
0
  6
Continuous
 62
     7
100
AcDbLine
 10
71.47189275869778
 20
226.9014857904872
 30
0.0
 11
71.51589275869776
 21
226.891535541731
 31
0.0
  0
LINE
  5
28A
330
1F
100
AcDbEntity
  8
0
  6
Continuous
 62
     7
100
AcDbLine
 10
71.51189275869774
 20
226.8119335516813
 30
0.0
 11
71.43589275869772
 21
226.8318340491937
 31
0.0
  0
LINE
  5
28B
330
1F
100
AcDbEntity
  8
0
  6
Continuous
 62
     7
100
AcDbLine
 10
71.39989275869777
 20
226.1129285765569
 30
0.0
 11
71.47989275869782
 21
226.1129285765569
 31
0.0
  0
LINE
  5
28C
330
1F
100
AcDbEntity
  8
0
  6
Continuous
 62
     7
100
AcDbLine
 10
71.47989275869782
 20
226.1129285765569
 30
0.0
 11
71.47989275869782
 21
225.4910380292932
 31
0.0
  0
LINE
  5
28D
330
1F
100
AcDbEntity
  8
0
  6
Continuous
 62
     7
100
AcDbLine
 10
71.47989275869782
 20
225.4910380292932
 30
0.0
 11
71.51589275869776
 21
225.5258638999399
 31
0.0
  0
LINE
  5
28E
330
1F
100
AcDbEntity
  8
0
  6
Continuous
 62
     7
100
AcDbLine
 10
71.51589275869776
 20
225.5258638999399
 30
0.0
 11
71.55589275869772
 21
225.5606897705868
 31
0.0
  0
LINE
  5
28F
330
1F
100
AcDbEntity
  8
0
  6
Continuous
 62
     7
100
AcDbLine
 10
77.31433066426575
 20
240.812431064119
 30
0.0
 11
83.11433066426571
 21
240.8124310641191
 31
0.0
  0
LINE
  5
290
330
1F
100
AcDbEntity
  8
0
  6
Continuous
 62
     7
100
AcDbLine
 10
70.41645485312972
 20
245.9624310641194
 30
0.0
 11
72.46645485312979
 21
245.9624310641194
 31
0.0
  0
LINE
  5
291
330
1F
100
AcDbEntity
  8
0
  6
Continuous
 62
     7
100
AcDbLine
 10
71.71589275869769
 20
233.0407892730743
 30
0.0
 11
71.66389275869778
 21
232.9014857904873
 31
0.0
  0
LINE
  5
292
330
1F
100
AcDbEntity
  8
0
  6
Continuous
 62
     7
100
AcDbLine
 10
71.72789275869775
 20
228.89402310392
 30
0.0
 11
71.64789275869771
 21
228.8790977307858
 31
0.0
  0
LINE
  5
293
330
1F
100
AcDbEntity
  8
0
  6
Continuous
 62
     7
100
AcDbLine
 10
71.71189275869779
 20
228.9885504671042
 30
0.0
 11
71.72789275869775
 21
228.89402310392
 31
0.0
  0
LINE
  5
294
330
1F
100
AcDbEntity
  8
0
  6
Continuous
 62
     7
100
AcDbLine
 10
71.6678927586978
 20
229.0582022083977
 30
0.0
 11
71.71189275869779
 21
228.9885504671042
 31
0.0
  0
LINE
  5
295
330
1F
100
AcDbEntity
  8
0
  6
Continuous
 62
     7
100
AcDbLine
 10
71.60789275869774
 20
229.1029783278006
 30
0.0
 11
71.6678927586978
 21
229.0582022083977
 31
0.0
  0
LINE
  5
296
330
1F
100
AcDbEntity
  8
0
  6
Continuous
 62
     7
100
AcDbLine
 10
71.5278927586977
 20
229.117903700935
 30
0.0
 11
71.60789275869774
 21
229.1029783278006
 31
0.0
  0
LINE
  5
297
330
1F
100
AcDbEntity
  8
0
  6
Continuous
 62
     7
100
AcDbLine
 10
71.44389275869776
 20
229.1029783278006
 30
0.0
 11
71.5278927586977
 21
229.117903700935
 31
0.0
  0
LINE
  5
298
330
1F
100
AcDbEntity
  8
0
  6
Continuous
 62
     7
100
AcDbLine
 10
71.32389275869775
 20
228.9736250939697
 30
0.0
 11
71.37189275869775
 21
229.0482519596415
 31
0.0
  0
LINE
  5
299
330
1F
100
AcDbEntity
  8
0
  6
Continuous
 62
     7
100
AcDbLine
 10
71.30789275869779
 20
228.8741226064077
 30
0.0
 11
71.32389275869775
 21
228.9736250939697
 31
0.0
  0
LINE
  5
29A
330
1F
100
AcDbEntity
  8
0
  6
Continuous
 62
     7
100
AcDbLine
 10
71.5238927586978
 20
229.0383017108853
 30
0.0
 11
71.47189275869778
 21
229.0283514621291
 31
0.0
  0
LINE
  5
29B
330
1F
100
AcDbEntity
  8
0
  6
Continuous
 62
     7
100
AcDbLine
 10
71.7258927586978
 20
234.3169086760593
 30
0.0
 11
71.30989275869774
 21
234.3169086760593
 31
0.0
  0
LINE
  5
29C
330
1F
100
AcDbEntity
  8
0
  6
Continuous
 62
     7
100
AcDbLine
 10
71.5958927586978
 20
232.8318340491937
 30
0.0
 11
71.4998927586978
 21
232.8069584273032
 31
0.0
  0
LINE
  5
29D
330
1F
100
AcDbEntity
  8
0
  6
Continuous
 62
     7
100
AcDbLine
 10
71.50789275869772
 20
233.617903700935
 30
0.0
 11
71.5998927586977
 21
233.5980032034226
 31
0.0
  0
LINE
  5
29E
330
1F
100
AcDbEntity
  8
0
  6
Continuous
 62
     7
100
AcDbLine
 10
71.50789275869772
 20
232.8865604173529
 30
0.0
 11
71.54389275869778
 21
232.8965106661092
 31
0.0
  0
LINE
  5
29F
330
1F
100
AcDbEntity
  8
0
  6
Continuous
 62
     7
100
AcDbLine
 10
71.54389275869778
 20
232.8965106661092
 30
0.0
 11
71.57589275869782
 21
232.9164111636216
 31
0.0
  0
LINE
  5
2A0
330
1F
100
AcDbEntity
  8
0
  6
Continuous
 62
     7
100
AcDbLine
 10
71.58389275869774
 20
233.1203912631241
 30
0.0
 11
71.54389275869778
 21
233.1004907656116
 31
0.0
  0
LINE
  5
2A1
330
1F
100
AcDbEntity
  8
0
  6
Continuous
 62
     7
100
AcDbLine
 10
71.37589275869777
 20
232.8616847954624
 30
0.0
 11
71.33989275869772
 21
232.9263614123778
 31
0.0
  0
LINE
  5
2A2
330
1F
100
AcDbEntity
  8
0
  6
Continuous
 62
     7
100
AcDbLine
 10
71.3598927586977
 20
233.1651673825271
 30
0.0
 11
71.31989275869773
 21
233.2497444969549
 31
0.0
  0
LINE
  5
2A3
330
1F
100
AcDbEntity
  8
0
  6
Continuous
 62
     7
100
AcDbLine
 10
71.33189275869779
 20
233.4885504671042
 30
0.0
 11
71.36789275869774
 21
233.5482519596415
 31
0.0
  0
LINE
  5
2A4
330
1F
100
AcDbEntity
  8
0
  6
Continuous
 62
     7
100
AcDbLine
 10
71.36789275869774
 20
233.5482519596415
 30
0.0
 11
71.4078927586977
 21
233.5880529546664
 31
0.0
  0
LINE
  5
2A5
330
1F
100
AcDbEntity
  8
0
  6
Continuous
 62
     7
100
AcDbLine
 10
71.62389275869782
 20
233.1552171337708
 30
0.0
 11
71.58389275869774
 21
233.1203912631241
 31
0.0
  0
LINE
  5
2A6
330
1F
100
AcDbEntity
  8
0
  6
Continuous
 62
     7
100
AcDbLine
 10
71.67189275869771
 20
233.5283514621291
 30
0.0
 11
71.71989275869771
 21
233.4139236014325
 31
0.0
  0
LINE
  5
2A7
330
1F
100
AcDbEntity
  8
0
  6
Continuous
 62
     7
100
AcDbLine
 10
71.33989275869772
 20
232.9263614123778
 30
0.0
 11
71.31589275869771
 21
233.0059634024276
 31
0.0
  0
LINE
  5
2A8
330
1F
100
AcDbEntity
  8
0
  6
Continuous
 62
     7
100
AcDbLine
 10
71.3118927586977
 20
233.4238738501888
 30
0.0
 11
71.33189275869779
 21
233.4885504671042
 31
0.0
  0
LINE
  5
2A9
330
1F
100
AcDbEntity
  8
0
  6
Continuous
 62
     7
100
AcDbLine
 10
71.72789275869775
 20
231.889047979542
 30
0.0
 11
71.64789275869771
 21
231.8790977307858
 31
0.0
  0
LINE
  5
2AA
330
1F
100
AcDbEntity
  8
0
  6
Continuous
 62
     7
100
AcDbLine
 10
71.71189275869779
 20
231.9835753427261
 30
0.0
 11
71.72789275869775
 21
231.889047979542
 31
0.0
  0
LINE
  5
2AB
330
1F
100
AcDbEntity
  8
0
  6
Continuous
 62
     7
100
AcDbLine
 10
71.66389275869778
 20
232.9014857904873
 30
0.0
 11
71.5958927586978
 21
232.8318340491937
 31
0.0
  0
LINE
  5
2AC
330
1F
100
AcDbEntity
  8
0
  6
Continuous
 62
     7
100
AcDbLine
 10
71.5998927586977
 20
233.5980032034226
 30
0.0
 11
71.67189275869771
 21
233.5283514621291
 31
0.0
  0
LINE
  5
2AD
330
1F
100
AcDbEntity
  8
0
  6
Continuous
 62
     7
100
AcDbLine
 10
71.60789275869774
 20
232.9611872830245
 30
0.0
 11
71.63189275869775
 21
233.0159136511838
 31
0.0
  0
LINE
  5
2AE
330
1F
100
AcDbEntity
  8
0
  6
Continuous
 62
     7
100
AcDbLine
 10
71.63189275869775
 20
233.0159136511838
 30
0.0
 11
71.64789275869771
 21
233.0955156412335
 31
0.0
  0
LINE
  5
2AF
330
1F
100
AcDbEntity
  8
0
  6
Continuous
 62
     7
100
AcDbLine
 10
71.64789275869771
 20
233.0955156412335
 30
0.0
 11
71.65189275869773
 21
233.1999932531737
 31
0.0
  0
LINE
  5
2B0
330
1F
100
AcDbEntity
  8
0
  6
Continuous
 62
     7
100
AcDbLine
 10
71.65189275869773
 20
233.1999932531737
 30
0.0
 11
71.62389275869782
 21
233.1552171337708
 31
0.0
  0
LINE
  5
2B1
330
1F
100
AcDbEntity
  8
0
  6
Continuous
 62
     7
100
AcDbLine
 10
71.65189275869773
 20
231.3119335516813
 30
0.0
 11
71.33989275869772
 21
231.3119335516813
 31
0.0
  0
LINE
  5
2B2
330
1F
100
AcDbEntity
  8
0
  6
Continuous
 62
     7
100
AcDbLine
 10
71.57589275869782
 20
232.9164111636216
 30
0.0
 11
71.60789275869774
 21
232.9611872830245
 31
0.0
  0
LINE
  5
2B3
330
1F
100
AcDbEntity
  8
0
  6
Continuous
 62
     7
100
AcDbLine
 10
71.31589275869771
 20
233.0059634024276
 30
0.0
 11
71.39589275869776
 21
233.0159136511838
 31
0.0
  0
LINE
  5
2B4
330
1F
100
AcDbEntity
  8
0
  6
Continuous
 62
     7
100
AcDbLine
 10
71.42389275869778
 20
233.1104410143679
 30
0.0
 11
71.3598927586977
 21
233.1651673825271
 31
0.0
  0
LINE
  5
2B5
330
1F
100
AcDbEntity
  8
0
  6
Continuous
 62
     7
100
AcDbLine
 10
71.54389275869778
 20
233.1004907656116
 30
0.0
 11
71.49589275869778
 21
233.0905405168554
 31
0.0
  0
LINE
  5
2B6
330
1F
100
AcDbEntity
  8
0
  6
Continuous
 62
     7
100
AcDbLine
 10
70.41645485312972
 20
243.9624310641194
 30
0.0
 11
72.46645485312979
 21
243.9624310641194
 31
0.0
  0
LINE
  5
2B7
330
1F
100
AcDbEntity
  8
0
  6
Continuous
 62
     7
100
AcDbLine
 10
70.41645485312972
 20
242.9624310641194
 30
0.0
 11
70.41645485312972
 21
243.9624310641194
 31
0.0
  0
LINE
  5
2B8
330
1F
100
AcDbEntity
  8
0
  6
Continuous
 62
     7
100
AcDbLine
 10
82.28933066426578
 20
239.3124310641191
 30
0.0
 11
83.11433066426571
 21
239.312431064119
 31
0.0
  0
LINE
  5
2B9
330
1F
100
AcDbEntity
  8
0
  6
Continuous
 62
     7
100
AcDbLine
 10
82.28933066426578
 20
238.7624310641191
 30
0.0
 11
82.28933066426578
 21
239.3124310641191
 31
0.0
  0
LINE
  5
2BA
330
1F
100
AcDbEntity
  8
0
  6
Continuous
 62
     7
100
AcDbLine
 10
83.11433066426571
 20
238.8124310641191
 30
0.0
 11
84.32933066426574
 21
238.8124310641191
 31
0.0
  0
LINE
  5
2BB
330
1F
100
AcDbEntity
  8
0
  6
Continuous
 62
     7
100
AcDbLine
 10
81.56645485312993
 20
241.8124310641192
 30
0.0
 11
83.11433066426571
 21
241.8124310641192
 31
0.0
  0
LINE
  5
2BC
330
1F
100
AcDbEntity
  8
0
  6
Continuous
 62
     7
100
AcDbLine
 10
83.11433066426571
 20
241.8124310641192
 30
0.0
 11
83.11433066426571
 21
240.8124310641191
 31
0.0
  0
LINE
  5
2BD
330
1F
100
AcDbEntity
  8
0
  6
Continuous
 62
     7
100
AcDbLine
 10
83.11433066426571
 20
239.312431064119
 30
0.0
 11
83.11433066426571
 21
238.8124310641191
 31
0.0
  0
LINE
  5
2BE
330
1F
100
AcDbEntity
  8
0
  6
Continuous
 62
     7
100
AcDbLine
 10
83.11433066426571
 20
239.312431064119
 30
0.0
 11
85.11645485312977
 21
239.312431064119
 31
0.0
  0
LINE
  5
2BF
330
1F
100
AcDbEntity
  8
0
  6
Continuous
 62
     7
100
AcDbLine
 10
84.32933066426574
 20
238.7624310641191
 30
0.0
 11
84.32933066426574
 21
238.8124310641191
 31
0.0
  0
LINE
  5
2C0
330
1F
100
AcDbEntity
  8
0
  6
Continuous
 62
     7
100
AcDbLine
 10
85.11645485312977
 20
243.9624310641194
 30
0.0
 11
85.11645485312977
 21
242.3124310641193
 31
0.0
  0
LINE
  5
2C1
330
1F
100
AcDbEntity
  8
0
  6
Continuous
 62
     7
100
AcDbLine
 10
85.11645485312977
 20
245.9624310641194
 30
0.0
 11
85.11645485312977
 21
243.9624310641194
 31
0.0
  0
LINE
  5
2C2
330
1F
100
AcDbEntity
  8
0
  6
Continuous
 62
     7
100
AcDbLine
 10
85.11645485312977
 20
239.6124310641193
 30
0.0
 11
85.11645485312977
 21
239.312431064119
 31
0.0
  0
LINE
  5
2C3
330
1F
100
AcDbEntity
  8
0
  6
Continuous
 62
     7
100
AcDbLine
 10
85.11645485312977
 20
241.3124310641193
 30
0.0
 11
85.11645485312977
 21
240.6124310641193
 31
0.0
  0
LINE
  5
2C4
330
1F
100
AcDbEntity
  8
0
  6
Continuous
 62
     7
100
AcDbLine
 10
81.86645485313022
 20
245.9624310641194
 30
0.0
 11
83.06645485312993
 21
245.9624310641194
 31
0.0
  0
LINE
  5
2C5
330
1F
100
AcDbEntity
  8
0
  6
Continuous
 62
     7
100
AcDbLine
 10
81.56645485312993
 20
244.4624310641194
 30
0.0
 11
81.56645485312993
 21
241.8124310641192
 31
0.0
  0
LINE
  5
2C6
330
1F
100
AcDbEntity
  8
0
  6
Continuous
 62
     7
100
AcDbLine
 10
72.46645485312979
 20
243.9624310641194
 30
0.0
 11
72.46645485312979
 21
245.9624310641194
 31
0.0
  0
LINE
  5
2C7
330
1F
100
AcDbEntity
  8
0
  6
Continuous
 62
     7
100
AcDbLine
 10
72.46645485312979
 20
245.9624310641194
 30
0.0
 11
73.66645485313029
 21
245.9624310641194
 31
0.0
  0
LINE
  5
2C8
330
1F
100
AcDbEntity
  8
0
  6
Continuous
 62
     7
100
AcDbLine
 10
73.96645485312979
 20
240.8124310641192
 30
0.0
 11
73.96645485312979
 21
244.4624310641194
 31
0.0
  0
LINE
  5
2C9
330
1F
100
AcDbEntity
  8
0
  6
Continuous
 62
     7
100
AcDbLine
 10
83.06645485312993
 20
243.9624310641194
 30
0.0
 11
85.11645485312977
 21
243.9624310641194
 31
0.0
  0
LINE
  5
2CA
330
1F
100
AcDbEntity
  8
0
  6
Continuous
 62
     7
100
AcDbLine
 10
83.06645485312993
 20
245.9624310641194
 30
0.0
 11
85.11645485312977
 21
245.9624310641194
 31
0.0
  0
LINE
  5
2CB
330
1F
100
AcDbEntity
  8
0
  6
Continuous
 62
     7
100
AcDbLine
 10
83.06645485312993
 20
245.9624310641194
 30
0.0
 11
83.06645485312993
 21
243.9624310641194
 31
0.0
  0
LINE
  5
2CC
330
1F
100
AcDbEntity
  8
0
  6
Continuous
 62
     7
100
AcDbLine
 10
73.96645485312979
 20
244.4624310641194
 30
0.0
 11
81.56645485312993
 21
244.4624310641194
 31
0.0
  0
LINE
  5
2CD
330
1F
100
AcDbEntity
  8
0
  6
Continuous
 62
     7
100
AcDbLine
 10
72.46645485312979
 20
217.9624310641189
 30
0.0
 11
70.41645485312972
 21
217.9624310641189
 31
0.0
  0
LINE
  5
2CE
330
1F
100
AcDbEntity
  8
0
  6
Continuous
 62
     7
100
AcDbLine
 10
70.41645485312972
 20
217.9624310641189
 30
0.0
 11
70.41645485312972
 21
218.9624310641193
 31
0.0
  0
LINE
  5
2CF
330
1F
100
AcDbEntity
  8
0
  6
Continuous
 62
     7
100
AcDbLine
 10
70.41645485312972
 20
222.9624310641193
 30
0.0
 11
71.41645485313018
 21
222.9624310641193
 31
0.0
  0
LINE
  5
2D0
330
1F
100
AcDbEntity
  8
0
  6
Continuous
 62
     7
100
AcDbLine
 10
70.41645485312972
 20
218.9624310641193
 30
0.0
 11
70.41645485312972
 21
222.9624310641193
 31
0.0
  0
LINE
  5
2D1
330
1F
100
AcDbEntity
  8
0
  6
Continuous
 62
     7
100
AcDbLine
 10
70.41645485312972
 20
223.1624310641191
 30
0.0
 11
70.41645485312972
 21
238.7624310641191
 31
0.0
  0
LINE
  5
2D2
330
1F
100
AcDbEntity
  8
0
  6
Continuous
 62
     7
100
AcDbLine
 10
71.30122824516025
 20
230.4221428677479
 30
0.0
 11
71.38922824516033
 21
230.4221428677479
 31
0.0
  0
LINE
  5
2D3
330
1F
100
AcDbEntity
  8
0
  6
Continuous
 62
     7
100
AcDbLine
 10
71.30122824516025
 20
230.332590628942
 30
0.0
 11
71.30122824516025
 21
230.4221428677479
 31
0.0
  0
LINE
  5
2D4
330
1F
100
AcDbEntity
  8
0
  6
Continuous
 62
     7
100
AcDbLine
 10
71.37189275869775
 20
226.8766101685967
 30
0.0
 11
71.33189275869779
 21
226.9512370342684
 31
0.0
  0
LINE
  5
2D5
330
1F
100
AcDbEntity
  8
0
  6
Continuous
 62
     7
100
AcDbLine
 10
71.30989275869774
 20
234.4014857904873
 30
0.0
 11
71.37389275869782
 21
234.4960131536713
 31
0.0
  0
LINE
  5
2D6
330
1F
100
AcDbEntity
  8
0
  6
Continuous
 62
     7
100
AcDbLine
 10
71.38589275869776
 20
235.8716350442186
 30
0.0
 11
71.3498927586977
 21
235.9412867855121
 31
0.0
  0
LINE
  5
2D7
330
1F
100
AcDbEntity
  8
0
  6
Continuous
 62
     7
100
AcDbLine
 10
71.3498927586977
 20
235.9412867855121
 30
0.0
 11
71.33389275869774
 21
236.0159136511838
 31
0.0
  0
LINE
  5
2D8
330
1F
100
AcDbEntity
  8
0
  6
Continuous
 62
     7
100
AcDbLine
 10
71.34189275869778
 20
236.254719621333
 30
0.0
 11
71.31789275869778
 21
236.3144211138703
 31
0.0
  0
LINE
  5
2D9
330
1F
100
AcDbEntity
  8
0
  6
Continuous
 62
     7
100
AcDbLine
 10
71.37789275869773
 20
236.2099435019299
 30
0.0
 11
71.34189275869778
 21
236.254719621333
 31
0.0
  0
LINE
  5
2DA
330
1F
100
AcDbEntity
  8
0
  6
Continuous
 62
     7
100
AcDbLine
 10
71.35789275869774
 20
236.115416138746
 30
0.0
 11
71.38989275869778
 21
236.1502420093927
 31
0.0
  0
LINE
  5
2DB
330
1F
100
AcDbEntity
  8
0
  6
Continuous
 62
     7
100
AcDbLine
 10
71.37989275869779
 20
228.7049683775519
 30
0.0
 11
71.33989275869772
 21
228.7447693725768
 31
0.0
  0
LINE
  5
2DC
330
1F
100
AcDbEntity
  8
0
  6
Continuous
 62
     7
100
AcDbLine
 10
71.36389275869772
 20
228.615416138746
 30
0.0
 11
71.39589275869776
 21
228.6552171337708
 31
0.0
  0
LINE
  5
2DD
330
1F
100
AcDbEntity
  8
0
  6
Continuous
 62
     7
100
AcDbLine
 10
71.39589275869776
 20
228.3716350442186
 30
0.0
 11
71.36389275869772
 21
228.4164111636216
 31
0.0
  0
LINE
  5
2DE
330
1F
100
AcDbEntity
  8
0
  6
Continuous
 62
     7
100
AcDbLine
 10
71.39989275869777
 20
228.9387992233231
 30
0.0
 11
71.38789275869772
 21
228.8741226064077
 31
0.0
  0
LINE
  5
2DF
330
1F
100
AcDbEntity
  8
0
  6
Continuous
 62
     7
100
AcDbLine
 10
71.34789275869775
 20
228.570640019343
 30
0.0
 11
71.36389275869772
 21
228.615416138746
 31
0.0
  0
LINE
  5
2E0
330
1F
100
AcDbEntity
  8
0
  6
Continuous
 62
     7
100
AcDbLine
 10
71.36389275869772
 20
228.4164111636216
 30
0.0
 11
71.34789275869775
 21
228.4661624074027
 31
0.0
  0
LINE
  5
2E1
330
1F
100
AcDbEntity
  8
0
  6
Continuous
 62
     7
100
AcDbLine
 10
71.34789275869775
 20
228.4661624074027
 30
0.0
 11
71.33989275869772
 21
228.5159136511838
 31
0.0
  0
LINE
  5
2E2
330
1F
100
AcDbEntity
  8
0
  6
Continuous
 62
     7
100
AcDbLine
 10
71.33989275869772
 20
228.5159136511838
 30
0.0
 11
71.34789275869775
 21
228.570640019343
 31
0.0
  0
LINE
  5
2E3
330
1F
100
AcDbEntity
  8
0
  6
Continuous
 62
     7
100
AcDbLine
 10
71.34189275869778
 20
236.070640019343
 30
0.0
 11
71.35789275869774
 21
236.115416138746
 31
0.0
  0
LINE
  5
2E4
330
1F
100
AcDbEntity
  8
0
  6
Continuous
 62
     7
100
AcDbLine
 10
71.33389275869774
 20
236.0159136511838
 30
0.0
 11
71.34189275869778
 21
236.070640019343
 31
0.0
  0
LINE
  5
2E5
330
1F
100
AcDbEntity
  8
0
  6
Continuous
 62
     7
100
AcDbLine
 10
71.31789275869778
 20
236.3144211138703
 30
0.0
 11
71.30989275869774
 21
236.3790977307858
 31
0.0
  0
LINE
  5
2E6
330
1F
100
AcDbEntity
  8
0
  6
Continuous
 62
     7
100
AcDbLine
 10
71.30989275869774
 20
234.3169086760593
 30
0.0
 11
71.30989275869774
 21
234.4014857904873
 31
0.0
  0
LINE
  5
2E7
330
1F
100
AcDbEntity
  8
0
  6
Continuous
 62
     7
100
AcDbLine
 10
71.30989275869774
 20
236.3790977307858
 30
0.0
 11
71.3258927586977
 21
236.478600218348
 31
0.0
  0
LINE
  5
2E8
330
1F
100
AcDbEntity
  8
0
  6
Continuous
 62
     7
100
AcDbLine
 10
71.3258927586977
 20
236.478600218348
 30
0.0
 11
71.36989275869769
 21
236.5532270840195
 31
0.0
  0
LINE
  5
2E9
330
1F
100
AcDbEntity
  8
0
  6
Continuous
 62
     7
100
AcDbLine
 10
71.33189275869779
 20
226.9512370342684
 30
0.0
 11
71.31589275869771
 21
227.0358141486962
 31
0.0
  0
LINE
  5
2EA
330
1F
100
AcDbEntity
  8
0
  6
Continuous
 62
     7
100
AcDbLine
 10
71.31589275869771
 20
227.0358141486962
 30
0.0
 11
71.31989275869773
 21
227.0855653924773
 31
0.0
  0
LINE
  5
2EB
330
1F
100
AcDbEntity
  8
0
  6
Continuous
 62
     7
100
AcDbLine
 10
71.31989275869773
 20
227.0855653924773
 30
0.0
 11
71.33189275869779
 21
227.1303415118802
 31
0.0
  0
LINE
  5
2EC
330
1F
100
AcDbEntity
  8
0
  6
Continuous
 62
     7
100
AcDbLine
 10
71.33189275869779
 20
227.1303415118802
 30
0.0
 11
71.35589275869779
 21
227.1800927556614
 31
0.0
  0
LINE
  5
2ED
330
1F
100
AcDbEntity
  8
0
  6
Continuous
 62
     7
100
AcDbLine
 10
71.35589275869779
 20
227.1800927556614
 30
0.0
 11
71.38389275869781
 21
227.2248688750644
 31
0.0
  0
LINE
  5
2EE
330
1F
100
AcDbEntity
  8
0
  6
Continuous
 62
     7
100
AcDbLine
 10
71.38922824516033
 20
230.332590628942
 30
0.0
 11
71.30122824516025
 21
230.332590628942
 31
0.0
  0
LINE
  5
2EF
330
1F
100
AcDbEntity
  8
0
  6
Continuous
 62
     7
100
AcDbLine
 10
71.39989275869777
 20
225.3119335516813
 30
0.0
 11
71.39989275869777
 21
226.1129285765569
 31
0.0
  0
LINE
  5
2F0
330
1F
100
AcDbEntity
  8
0
  6
Continuous
 62
     7
100
AcDbLine
 10
70.41645485312972
 20
223.1624310641191
 30
0.0
 11
70.41645485312972
 21
222.9624310641193
 31
0.0
  0
LINE
  5
2F1
330
1F
100
AcDbEntity
  8
0
  6
Continuous
 62
     7
100
AcDbLine
 10
70.41645485312972
 20
218.9624310641193
 30
0.0
 11
71.41645485313018
 21
218.9624310641193
 31
0.0
  0
LINE
  5
2F2
330
1F
100
AcDbEntity
  8
0
  6
Continuous
 62
     7
100
AcDbLine
 10
81.86645485313022
 20
247.9624310641193
 30
0.0
 11
73.66645485313029
 21
247.9624310641193
 31
0.0
  0
LINE
  5
2F3
330
1F
100
AcDbEntity
  8
0
  6
Continuous
 62
     7
100
AcDbLine
 10
72.61933066426582
 20
238.7624310641191
 30
0.0
 11
72.61933066426582
 21
223.1624310641191
 31
0.0
  0
LINE
  5
2F4
330
1F
100
AcDbEntity
  8
0
  6
Continuous
 62
     7
100
AcDbLine
 10
81.86645485313022
 20
247.9624310641193
 30
0.0
 11
81.86645485313022
 21
245.9624310641194
 31
0.0
  0
LINE
  5
2F5
330
1F
100
AcDbEntity
  8
0
  6
Continuous
 62
     7
100
AcDbLine
 10
81.12933066426581
 20
224.9874310641191
 30
0.0
 11
81.12933066426581
 21
228.9374310641191
 31
0.0
  0
LINE
  5
2F6
330
1F
100
AcDbEntity
  8
0
  6
Continuous
 62
     7
100
AcDbLine
 10
74.32933066426574
 20
224.9874310641191
 30
0.0
 11
81.12933066426581
 21
224.9874310641191
 31
0.0
  0
LINE
  5
2F7
330
1F
100
AcDbEntity
  8
0
  6
Continuous
 62
     7
100
AcDbLine
 10
82.82933066426574
 20
223.1624310641191
 30
0.0
 11
84.32933066426574
 21
224.6624310641191
 31
0.0
  0
LINE
  5
2F8
330
1F
100
AcDbEntity
  8
0
  6
Continuous
 62
     7
100
AcDbLine
 10
81.56645485312993
 20
217.462431064119
 30
0.0
 11
73.96645485312979
 21
217.462431064119
 31
0.0
  0
LINE
  5
2F9
330
1F
100
AcDbEntity
  8
0
  6
Continuous
 62
     7
100
AcDbLine
 10
71.71989275869771
 20
227.5432768352634
 30
0.0
 11
71.70389275869775
 21
227.4935255914823
 31
0.0
  0
LINE
  5
2FA
330
1F
100
AcDbEntity
  8
0
  6
Continuous
 62
     7
100
AcDbLine
 10
71.60789275869774
 20
227.4885504671042
 30
0.0
 11
71.62389275869782
 21
227.5134260889947
 31
0.0
  0
LINE
  5
2FB
330
1F
100
AcDbEntity
  8
0
  6
Continuous
 62
     7
100
AcDbLine
 10
71.73189275869777
 20
233.2348191238205
 30
0.0
 11
71.71589275869769
 21
233.0407892730743
 31
0.0
  0
LINE
  5
2FC
330
1F
100
AcDbEntity
  8
0
  6
Continuous
 62
     7
100
AcDbLine
 10
71.5998927586977
 20
228.3218838004375
 30
0.0
 11
71.5278927586977
 21
228.3069584273032
 31
0.0
  0
LINE
  5
2FD
330
1F
100
AcDbEntity
  8
0
  6
Continuous
 62
     7
100
AcDbLine
 10
71.4518927586978
 20
228.4263614123778
 30
0.0
 11
71.48789275869774
 21
228.396510666109
 31
0.0
  0
LINE
  5
2FE
330
1F
100
AcDbEntity
  8
0
  6
Continuous
 62
     7
100
AcDbLine
 10
71.5038927586977
 20
228.6452668850146
 30
0.0
 11
71.45989275869772
 21
228.615416138746
 31
0.0
  0
LINE
  5
2FF
330
1F
100
AcDbEntity
  8
0
  6
Continuous
 62
     7
100
AcDbLine
 10
71.42389275869778
 20
228.7646698700893
 30
0.0
 11
71.46789275869776
 21
228.7348191238205
 31
0.0
  0
LINE
  5
300
330
1F
100
AcDbEntity
  8
0
  6
Continuous
 62
     7
100
AcDbLine
 10
71.5278927586977
 20
228.3069584273032
 30
0.0
 11
71.47989275869782
 21
228.3169086760593
 31
0.0
  0
LINE
  5
301
330
1F
100
AcDbEntity
  8
0
  6
Continuous
 62
     7
100
AcDbLine
 10
71.47989275869782
 20
228.3169086760593
 30
0.0
 11
71.43189275869781
 21
228.3368091735718
 31
0.0
  0
LINE
  5
302
330
1F
100
AcDbEntity
  8
0
  6
Continuous
 62
     7
100
AcDbLine
 10
71.71989275869771
 20
233.4139236014325
 30
0.0
 11
71.73189275869777
 21
233.2348191238205
 31
0.0
  0
LINE
  5
303
330
1F
100
AcDbEntity
  8
0
  6
Continuous
 62
     7
100
AcDbLine
 10
71.72789275869775
 20
227.6129285765569
 30
0.0
 11
71.72789275869775
 21
227.57810270591
 31
0.0
  0
LINE
  5
304
330
1F
100
AcDbEntity
  8
0
  6
Continuous
 62
     7
100
AcDbLine
 10
71.72789275869775
 20
227.57810270591
 30
0.0
 11
71.71989275869771
 21
227.5432768352634
 31
0.0
  0
LINE
  5
305
330
1F
100
AcDbEntity
  8
0
  6
Continuous
 62
     7
100
AcDbLine
 10
71.30789275869779
 20
227.6129285765569
 30
0.0
 11
71.72789275869775
 21
227.6129285765569
 31
0.0
  0
LINE
  5
306
330
1F
100
AcDbEntity
  8
0
  6
Continuous
 62
     7
100
AcDbLine
 10
77.31433066426575
 20
221.1124310641193
 30
0.0
 11
77.31433066426575
 21
220.1124310641191
 31
0.0
  0
LINE
  5
307
330
1F
100
AcDbEntity
  8
0
  6
Continuous
 62
     7
100
AcDbLine
 10
72.46645485312979
 20
215.9624310641189
 30
0.0
 11
72.46645485312979
 21
217.9624310641189
 31
0.0
  0
LINE
  5
308
330
1F
100
AcDbEntity
  8
0
  6
Continuous
 62
     7
100
AcDbLine
 10
71.41645485313018
 20
218.9624310641193
 30
0.0
 11
71.41645485313018
 21
222.9624310641193
 31
0.0
  0
LINE
  5
309
330
1F
100
AcDbEntity
  8
0
  6
Continuous
 62
     7
100
AcDbLine
 10
77.31433066426575
 20
221.1124310641193
 30
0.0
 11
73.96645485312979
 21
221.1124310641194
 31
0.0
  0
LINE
  5
30A
330
1F
100
AcDbEntity
  8
0
  6
Continuous
 62
     7
100
AcDbLine
 10
83.06645485312993
 20
215.9624310641189
 30
0.0
 11
80.86645485313011
 21
215.9624310641189
 31
0.0
  0
LINE
  5
30B
330
1F
100
AcDbEntity
  8
0
  6
Continuous
 62
     7
100
AcDbLine
 10
85.11645485312977
 20
215.9624310641189
 30
0.0
 11
83.06645485312993
 21
215.9624310641189
 31
0.0
  0
LINE
  5
30C
330
1F
100
AcDbEntity
  8
0
  6
Continuous
 62
     7
100
AcDbLine
 10
74.66645485313018
 20
215.9624310641189
 30
0.0
 11
72.46645485312979
 21
215.9624310641189
 31
0.0
  0
LINE
  5
30D
330
1F
100
AcDbEntity
  8
0
  6
Continuous
 62
     7
100
AcDbLine
 10
85.11645485312977
 20
217.962431064119
 30
0.0
 11
83.06645485312993
 21
217.9624310641189
 31
0.0
  0
LINE
  5
30E
330
1F
100
AcDbEntity
  8
0
  6
Continuous
 62
     7
100
AcDbLine
 10
81.56645485312993
 20
220.1124310641191
 30
0.0
 11
81.56645485312993
 21
217.462431064119
 31
0.0
  0
LINE
  5
30F
330
1F
100
AcDbEntity
  8
0
  6
Continuous
 62
     7
100
AcDbLine
 10
77.31433066426575
 20
220.1124310641191
 30
0.0
 11
81.56645485312993
 21
220.1124310641191
 31
0.0
  0
LINE
  5
310
330
1F
100
AcDbEntity
  8
0
  6
Continuous
 62
     7
100
AcDbLine
 10
83.11433066426571
 20
220.1124310641193
 30
0.0
 11
81.56645485312993
 21
220.1124310641191
 31
0.0
  0
LINE
  5
311
330
1F
100
AcDbEntity
  8
0
  6
Continuous
 62
     7
100
AcDbLine
 10
73.96645485312979
 20
217.462431064119
 30
0.0
 11
73.96645485312979
 21
221.1124310641194
 31
0.0
  0
LINE
  5
312
330
1F
100
AcDbEntity
  8
0
  6
Continuous
 62
     7
100
AcDbLine
 10
84.32933066426574
 20
224.6624310641191
 30
0.0
 11
84.32933066426574
 21
228.9374310641191
 31
0.0
  0
LINE
  5
313
330
1F
100
AcDbEntity
  8
0
  6
Continuous
 62
     7
100
AcDbLine
 10
83.06645485312993
 20
217.9624310641189
 30
0.0
 11
83.06645485312993
 21
215.9624310641189
 31
0.0
  0
LINE
  5
314
330
1F
100
AcDbEntity
  8
0
  6
Continuous
 62
     7
100
AcDbLine
 10
83.11433066426571
 20
221.1124310641194
 30
0.0
 11
83.11433066426571
 21
220.1124310641193
 31
0.0
  0
LINE
  5
315
330
1F
100
AcDbEntity
  8
0
  6
Continuous
 62
     7
100
AcDbLine
 10
84.32933066426574
 20
223.1624310641191
 30
0.0
 11
84.32933066426574
 21
224.6624310641191
 31
0.0
  0
LINE
  5
316
330
1F
100
AcDbEntity
  8
0
  6
Continuous
 62
     7
100
AcDbLine
 10
72.61933066426582
 20
223.1624310641191
 30
0.0
 11
82.82933066426574
 21
223.1624310641191
 31
0.0
  0
LINE
  5
317
330
1F
100
AcDbEntity
  8
0
  6
Continuous
 62
     7
100
AcDbLine
 10
83.11433066426571
 20
221.1124310641194
 30
0.0
 11
77.31433066426575
 21
221.1124310641193
 31
0.0
  0
LINE
  5
318
330
1F
100
AcDbEntity
  8
0
  6
Continuous
 62
     7
100
AcDbLine
 10
82.82933066426574
 20
223.1624310641191
 30
0.0
 11
84.32933066426574
 21
223.1624310641191
 31
0.0
  0
LINE
  5
319
330
1F
100
AcDbEntity
  8
0
  6
Continuous
 62
     7
100
AcDbLine
 10
85.11645485312977
 20
215.9624310641189
 30
0.0
 11
85.11645485312977
 21
217.962431064119
 31
0.0
  0
LINE
  5
31A
330
1F
100
AcDbEntity
  8
0
  6
Continuous
 62
     7
100
AcDbLine
 10
84.32933066426574
 20
223.1624310641191
 30
0.0
 11
85.11645485312977
 21
223.1624310641191
 31
0.0
  0
LINE
  5
31B
330
1F
100
AcDbEntity
  8
0
  6
Continuous
 62
     7
100
AcDbLine
 10
85.11645485312977
 20
219.6124310641193
 30
0.0
 11
85.11645485312977
 21
217.962431064119
 31
0.0
  0
LINE
  5
31C
330
1F
100
AcDbEntity
  8
0
  6
Continuous
 62
     7
100
AcDbLine
 10
85.11645485312977
 20
221.3124310641193
 30
0.0
 11
85.11645485312977
 21
220.6124310641193
 31
0.0
  0
LINE
  5
31D
330
1F
100
AcDbEntity
  8
0
  6
Continuous
 62
     7
100
AcDbLine
 10
85.11645485312977
 20
223.1624310641191
 30
0.0
 11
85.11645485312977
 21
222.3124310641193
 31
0.0
  0
LINE
  5
31E
330
1F
100
AcDbEntity
  8
0
  6
Continuous
 62
     7
100
AcDbLine
 10
86.01645485312974
 20
222.3124310641193
 30
0.0
 11
86.01645485312974
 21
221.3124310641193
 31
0.0
  0
LINE
  5
31F
330
1F
100
AcDbEntity
  8
0
  6
Continuous
 62
     7
100
AcDbLine
 10
86.01645485312974
 20
219.6124310641193
 30
0.0
 11
86.01645485312974
 21
220.6124310641193
 31
0.0
  0
LINE
  5
320
330
1F
100
AcDbEntity
  8
0
  6
Continuous
 62
     7
100
AcDbLine
 10
85.11645485312977
 20
223.1624310641191
 30
0.0
 11
85.11645485312977
 21
235.0624310641195
 31
0.0
  0
LINE
  5
321
330
1F
100
AcDbEntity
  8
0
  6
Continuous
 62
     7
100
AcDbLine
 10
71.74922824516034
 20
230.4221428677479
 30
0.0
 11
71.74922824516034
 21
230.332590628942
 31
0.0
  0
LINE
  5
322
330
1F
100
AcDbEntity
  8
0
  6
Continuous
 62
     7
100
AcDbLine
 10
71.46922824516025
 20
230.4221428677479
 30
0.0
 11
71.74922824516034
 21
230.4221428677479
 31
0.0
  0
LINE
  5
323
330
1F
100
AcDbEntity
  8
0
  6
Continuous
 62
     7
100
AcDbLine
 10
71.40989275869777
 20
234.4164111636216
 30
0.0
 11
71.7258927586978
 21
234.4164111636216
 31
0.0
  0
LINE
  5
324
330
1F
100
AcDbEntity
  8
0
  6
Continuous
 62
     7
100
AcDbLine
 10
71.69989275869773
 20
228.4313365367559
 30
0.0
 11
71.65589275869775
 21
228.3616847954624
 31
0.0
  0
LINE
  5
325
330
1F
100
AcDbEntity
  8
0
  6
Continuous
 62
     7
100
AcDbLine
 10
71.71989275869771
 20
228.5159136511838
 30
0.0
 11
71.69989275869773
 21
228.4313365367559
 31
0.0
  0
LINE
  5
326
330
1F
100
AcDbEntity
  8
0
  6
Continuous
 62
     7
100
AcDbLine
 10
71.62789275869773
 20
228.4711375317807
 30
0.0
 11
71.63989275869778
 21
228.5308390243181
 31
0.0
  0
LINE
  5
327
330
1F
100
AcDbEntity
  8
0
  6
Continuous
 62
     7
100
AcDbLine
 10
71.60389275869773
 20
228.4263614123778
 30
0.0
 11
71.62789275869773
 21
228.4711375317807
 31
0.0
  0
LINE
  5
328
330
1F
100
AcDbEntity
  8
0
  6
Continuous
 62
     7
100
AcDbLine
 10
71.57189275869769
 20
228.3965106661092
 30
0.0
 11
71.60389275869773
 21
228.4263614123778
 31
0.0
  0
LINE
  5
329
330
1F
100
AcDbEntity
  8
0
  6
Continuous
 62
     7
100
AcDbLine
 10
71.48789275869774
 20
228.396510666109
 30
0.0
 11
71.52789275869782
 21
228.3865604173529
 31
0.0
  0
LINE
  5
32A
330
1F
100
AcDbEntity
  8
0
  6
Continuous
 62
     7
100
AcDbLine
 10
71.5718927586978
 20
228.7298439994425
 30
0.0
 11
71.56389275869776
 21
228.6452668850146
 31
0.0
  0
LINE
  5
32B
330
1F
100
AcDbEntity
  8
0
  6
Continuous
 62
     7
100
AcDbLine
 10
71.51589275869776
 20
228.7198937506863
 30
0.0
 11
71.5718927586978
 21
228.7298439994425
 31
0.0
  0
LINE
  5
32C
330
1F
100
AcDbEntity
  8
0
  6
Continuous
 62
     7
100
AcDbLine
 10
71.46789275869776
 20
228.7348191238205
 30
0.0
 11
71.51589275869776
 21
228.7198937506863
 31
0.0
  0
LINE
  5
32D
330
1F
100
AcDbEntity
  8
0
  6
Continuous
 62
     7
100
AcDbLine
 10
71.56389275869776
 20
228.6452668850146
 30
0.0
 11
71.55989275869774
 21
228.6502420093927
 31
0.0
  0
LINE
  5
32E
330
1F
100
AcDbEntity
  8
0
  6
Continuous
 62
     7
100
AcDbLine
 10
71.5518927586977
 20
228.6502420093927
 30
0.0
 11
71.5038927586977
 21
228.6452668850146
 31
0.0
  0
LINE
  5
32F
330
1F
100
AcDbEntity
  8
0
  6
Continuous
 62
     7
100
AcDbLine
 10
71.55989275869774
 20
228.6502420093927
 30
0.0
 11
71.5518927586977
 21
228.6502420093927
 31
0.0
  0
LINE
  5
330
330
1F
100
AcDbEntity
  8
0
  6
Continuous
 62
     7
100
AcDbLine
 10
71.63989275869778
 20
228.5308390243181
 30
0.0
 11
71.71989275869771
 21
228.5159136511838
 31
0.0
  0
LINE
  5
331
330
1F
100
AcDbEntity
  8
0
  6
Continuous
 62
     7
100
AcDbLine
 10
84.32933066426574
 20
235.0624310641195
 30
0.0
 11
85.11645485312977
 21
235.0624310641195
 31
0.0
  0
LINE
  5
332
330
1F
100
AcDbEntity
  8
0
  6
Continuous
 62
     7
100
AcDbLine
 10
84.32933066426574
 20
232.9874310641191
 30
0.0
 11
84.32933066426574
 21
235.0624310641195
 31
0.0
  0
LINE
  5
333
330
1F
100
AcDbEntity
  8
0
  6
Continuous
 62
     7
100
AcDbLine
 10
85.11645485312977
 20
219.6124310641193
 30
0.0
 11
86.01645485312974
 21
219.6124310641193
 31
0.0
  0
LINE
  5
334
330
1F
100
AcDbEntity
  8
0
  6
Continuous
 62
     7
100
AcDbLine
 10
86.01645485312974
 20
220.6124310641193
 30
0.0
 11
85.11645485312977
 21
220.6124310641193
 31
0.0
  0
LINE
  5
335
330
1F
100
AcDbEntity
  8
0
  6
Continuous
 62
     7
100
AcDbLine
 10
86.01645485312974
 20
221.3124310641193
 30
0.0
 11
85.11645485312977
 21
221.3124310641193
 31
0.0
  0
LINE
  5
336
330
1F
100
AcDbEntity
  8
0
  6
Continuous
 62
     7
100
AcDbLine
 10
85.11645485312977
 20
222.3124310641193
 30
0.0
 11
86.01645485312974
 21
222.3124310641193
 31
0.0
  0
LINE
  5
337
330
1F
100
AcDbEntity
  8
0
  6
Continuous
 62
     7
100
AcDbLine
 10
141.0164546856573
 20
168.6624311401261
 30
0.0
 11
125.4164546856574
 21
168.662431140126
 31
0.0
  0
LINE
  5
338
330
1F
100
AcDbEntity
  8
0
  6
Continuous
 62
     7
100
AcDbLine
 10
144.1164546856574
 20
168.6624311401261
 30
0.0
 11
144.1164546856572
 21
182.8624311401262
 31
0.0
  0
LINE
  5
339
330
1F
100
AcDbEntity
  8
0
  6
Continuous
 62
     7
100
AcDbLine
 10
148.2164546856577
 20
152.162431140126
 30
0.0
 11
150.2164546856576
 21
152.162431140126
 31
0.0
  0
LINE
  5
33A
330
1F
100
AcDbEntity
  8
0
  6
Continuous
 62
     7
100
AcDbLine
 10
148.2164546856577
 20
152.162431140126
 30
0.0
 11
148.2164546856577
 21
166.162431140126
 31
0.0
  0
LINE
  5
33B
330
1F
100
AcDbEntity
  8
0
  6
Continuous
 62
     7
100
AcDbLine
 10
146.2164546856577
 20
166.162431140126
 30
0.0
 11
148.2164546856577
 21
166.162431140126
 31
0.0
  0
LINE
  5
33C
330
1F
100
AcDbEntity
  8
0
  6
Continuous
 62
     7
100
AcDbLine
 10
148.2164546856577
 20
168.6624311401261
 30
0.0
 11
148.2164546856577
 21
166.162431140126
 31
0.0
  0
LINE
  5
33D
330
1F
100
AcDbEntity
  8
0
  6
Continuous
 62
     7
100
AcDbLine
 10
148.2164546856577
 20
168.6624311401261
 30
0.0
 11
144.1164546856574
 21
168.6624311401261
 31
0.0
  0
LINE
  5
33E
330
1F
100
AcDbEntity
  8
0
  6
Continuous
 62
     7
100
AcDbLine
 10
141.0164546856573
 20
184.6624311401261
 30
0.0
 11
141.0164546856573
 21
182.8624311401262
 31
0.0
  0
LINE
  5
33F
330
1F
100
AcDbEntity
  8
0
  6
Continuous
 62
     7
100
AcDbLine
 10
141.0164546856573
 20
182.8624311401262
 30
0.0
 11
141.0164546856573
 21
168.6624311401261
 31
0.0
  0
LINE
  5
340
330
1F
100
AcDbEntity
  8
0
  6
Continuous
 62
     7
100
AcDbLine
 10
125.4164546856574
 20
150.362431140126
 30
0.0
 11
125.4164546856574
 21
148.6624311401261
 31
0.0
  0
LINE
  5
341
330
1F
100
AcDbEntity
  8
0
  6
Continuous
 62
     7
100
AcDbLine
 10
116.2164546856576
 20
151.6624311401261
 30
0.0
 11
116.2164546856576
 21
148.6624311401261
 31
0.0
  0
LINE
  5
342
330
1F
100
AcDbEntity
  8
0
  6
Continuous
 62
     7
100
AcDbLine
 10
125.4164546856574
 20
182.8624311401262
 30
0.0
 11
125.4164546856574
 21
168.662431140126
 31
0.0
  0
LINE
  5
343
330
1F
100
AcDbEntity
  8
0
  6
Continuous
 62
     7
100
AcDbLine
 10
120.2164546856573
 20
148.6624311401261
 30
0.0
 11
120.2164546856574
 21
166.1624311401261
 31
0.0
  0
LINE
  5
344
330
1F
100
AcDbEntity
  8
0
  6
Continuous
 62
     7
100
AcDbLine
 10
118.2164546856573
 20
148.6624311401261
 30
0.0
 11
116.2164546856576
 21
148.6624311401261
 31
0.0
  0
LINE
  5
345
330
1F
100
AcDbEntity
  8
0
  6
Continuous
 62
     7
100
AcDbLine
 10
118.2164546856573
 20
151.6624311401261
 30
0.0
 11
118.2164546856573
 21
148.6624311401261
 31
0.0
  0
LINE
  5
346
330
1F
100
AcDbEntity
  8
0
  6
Continuous
 62
     7
100
AcDbLine
 10
118.2164546856573
 20
148.6624311401261
 30
0.0
 11
120.2164546856573
 21
148.6624311401261
 31
0.0
  0
LINE
  5
347
330
1F
100
AcDbEntity
  8
0
  6
Continuous
 62
     7
100
AcDbLine
 10
118.2164546856573
 20
152.1624311401261
 30
0.0
 11
118.2164546856573
 21
151.6624311401261
 31
0.0
  0
LINE
  5
348
330
1F
100
AcDbEntity
  8
0
  6
Continuous
 62
     7
100
AcDbLine
 10
118.2164546856573
 20
152.1624311401261
 30
0.0
 11
116.2164546856576
 21
152.1624311401261
 31
0.0
  0
LINE
  5
349
330
1F
100
AcDbEntity
  8
0
  6
Continuous
 62
     7
100
AcDbLine
 10
116.2164546856576
 20
151.6624311401261
 30
0.0
 11
116.2164546856576
 21
152.1624311401261
 31
0.0
  0
LINE
  5
34A
330
1F
100
AcDbEntity
  8
0
  6
Continuous
 62
     7
100
AcDbLine
 10
120.2164546856573
 20
148.6624311401261
 30
0.0
 11
121.2164546856576
 21
148.6624311401261
 31
0.0
  0
LINE
  5
34B
330
1F
100
AcDbEntity
  8
0
  6
Continuous
 62
     7
100
AcDbLine
 10
121.2164546856576
 20
148.6624311401261
 30
0.0
 11
121.2164546856576
 21
158.6624311401261
 31
0.0
  0
LINE
  5
34C
330
1F
100
AcDbEntity
  8
0
  6
Continuous
 62
     7
100
AcDbLine
 10
122.3164546856573
 20
182.8624311401262
 30
0.0
 11
125.4164546856574
 21
182.8624311401262
 31
0.0
  0
LINE
  5
34D
330
1F
100
AcDbEntity
  8
0
  6
Continuous
 62
     7
100
AcDbLine
 10
122.3164546856573
 20
182.8624311401262
 30
0.0
 11
122.3164546856574
 21
168.662431140126
 31
0.0
  0
LINE
  5
34E
330
1F
100
AcDbEntity
  8
0
  6
Continuous
 62
     7
100
AcDbLine
 10
122.3164546856574
 20
168.662431140126
 30
0.0
 11
118.2164546856573
 21
168.6624311401259
 31
0.0
  0
LINE
  5
34F
330
1F
100
AcDbEntity
  8
0
  6
Continuous
 62
     7
100
AcDbLine
 10
118.2164546856573
 20
166.1624311401261
 30
0.0
 11
120.2164546856574
 21
166.1624311401261
 31
0.0
  0
LINE
  5
350
330
1F
100
AcDbEntity
  8
0
  6
Continuous
 62
     7
100
AcDbLine
 10
121.2164546856576
 20
158.6624311401261
 30
0.0
 11
125.2164546856576
 21
158.6624311401261
 31
0.0
  0
LINE
  5
351
330
1F
100
AcDbEntity
  8
0
  6
Continuous
 62
     7
100
AcDbLine
 10
125.2164546856576
 20
158.6624311401261
 30
0.0
 11
125.2164546856576
 21
148.6624311401261
 31
0.0
  0
LINE
  5
352
330
1F
100
AcDbEntity
  8
0
  6
Continuous
 62
     7
100
AcDbLine
 10
118.2164546856573
 20
166.1624311401261
 30
0.0
 11
118.2164546856573
 21
152.1624311401261
 31
0.0
  0
LINE
  5
353
330
1F
100
AcDbEntity
  8
0
  6
Continuous
 62
     7
100
AcDbLine
 10
118.2164546856573
 20
168.6624311401259
 30
0.0
 11
118.2164546856573
 21
166.1624311401261
 31
0.0
  0
LINE
  5
354
330
1F
100
AcDbEntity
  8
0
  6
Continuous
 62
     7
100
AcDbLine
 10
125.4164546856574
 20
184.6624311401261
 30
0.0
 11
125.4164546856574
 21
182.8624311401262
 31
0.0
  0
LINE
  5
355
330
1F
100
AcDbEntity
  8
0
  6
Continuous
 62
     7
100
AcDbLine
 10
125.4164546856574
 20
168.662431140126
 30
0.0
 11
122.3164546856574
 21
168.662431140126
 31
0.0
  0
LINE
  5
356
330
1F
100
AcDbEntity
  8
0
  6
Continuous
 62
     7
100
AcDbLine
 10
141.0164546856573
 20
182.8624311401262
 30
0.0
 11
144.1164546856572
 21
182.8624311401262
 31
0.0
  0
LINE
  5
357
330
1F
100
AcDbEntity
  8
0
  6
Continuous
 62
     7
100
AcDbLine
 10
141.0164546856573
 20
184.6624311401261
 30
0.0
 11
125.4164546856574
 21
184.6624311401261
 31
0.0
  0
LINE
  5
358
330
1F
100
AcDbEntity
  8
0
  6
Continuous
 62
     7
100
AcDbLine
 10
144.1164546856574
 20
168.6624311401261
 30
0.0
 11
141.0164546856573
 21
168.6624311401261
 31
0.0
  0
LINE
  5
359
330
1F
100
AcDbEntity
  8
0
  6
Continuous
 62
     7
100
AcDbLine
 10
146.2164546856577
 20
166.162431140126
 30
0.0
 11
146.2164546856576
 21
148.662431140126
 31
0.0
  0
LINE
  5
35A
330
1F
100
AcDbEntity
  8
0
  6
Continuous
 62
     7
100
AcDbLine
 10
148.2164546856577
 20
148.662431140126
 30
0.0
 11
148.2164546856577
 21
151.662431140126
 31
0.0
  0
LINE
  5
35B
330
1F
100
AcDbEntity
  8
0
  6
Continuous
 62
     7
100
AcDbLine
 10
150.2164546856576
 20
151.662431140126
 30
0.0
 11
150.2164546856576
 21
148.662431140126
 31
0.0
  0
LINE
  5
35C
330
1F
100
AcDbEntity
  8
0
  6
Continuous
 62
     7
100
AcDbLine
 10
145.2164546856577
 20
158.662431140126
 30
0.0
 11
145.2164546856577
 21
148.662431140126
 31
0.0
  0
LINE
  5
35D
330
1F
100
AcDbEntity
  8
0
  6
Continuous
 62
     7
100
AcDbLine
 10
121.2164546856576
 20
148.6624311401261
 30
0.0
 11
125.2164546856576
 21
148.6624311401261
 31
0.0
  0
LINE
  5
35E
330
1F
100
AcDbEntity
  8
0
  6
Continuous
 62
     7
100
AcDbLine
 10
150.2164546856576
 20
148.662431140126
 30
0.0
 11
148.2164546856577
 21
148.662431140126
 31
0.0
  0
LINE
  5
35F
330
1F
100
AcDbEntity
  8
0
  6
Continuous
 62
     7
100
AcDbLine
 10
146.2164546856576
 20
148.662431140126
 30
0.0
 11
148.2164546856577
 21
148.662431140126
 31
0.0
  0
LINE
  5
360
330
1F
100
AcDbEntity
  8
0
  6
Continuous
 62
     7
100
AcDbLine
 10
141.2164546856576
 20
148.662431140126
 30
0.0
 11
145.2164546856577
 21
148.662431140126
 31
0.0
  0
LINE
  5
361
330
1F
100
AcDbEntity
  8
0
  6
Continuous
 62
     7
100
AcDbLine
 10
125.4164546856574
 20
148.6624311401261
 30
0.0
 11
125.2164546856576
 21
148.6624311401261
 31
0.0
  0
LINE
  5
362
330
1F
100
AcDbEntity
  8
0
  6
Continuous
 62
     7
100
AcDbLine
 10
141.2164546856576
 20
148.662431140126
 30
0.0
 11
141.0164546856573
 21
148.662431140126
 31
0.0
  0
LINE
  5
363
330
1F
100
AcDbEntity
  8
0
  6
Continuous
 62
     7
100
AcDbLine
 10
145.2164546856577
 20
148.662431140126
 30
0.0
 11
146.2164546856576
 21
148.662431140126
 31
0.0
  0
LINE
  5
364
330
1F
100
AcDbEntity
  8
0
  6
Continuous
 62
     7
100
AcDbLine
 10
141.2164546856576
 20
158.662431140126
 30
0.0
 11
145.2164546856577
 21
158.662431140126
 31
0.0
  0
LINE
  5
365
330
1F
100
AcDbEntity
  8
0
  6
Continuous
 62
     7
100
AcDbLine
 10
141.2164546856576
 20
148.662431140126
 30
0.0
 11
141.2164546856576
 21
158.662431140126
 31
0.0
  0
LINE
  5
366
330
1F
100
AcDbEntity
  8
0
  6
Continuous
 62
     7
100
AcDbLine
 10
150.2164546856576
 20
152.162431140126
 30
0.0
 11
150.2164546856576
 21
151.662431140126
 31
0.0
  0
LINE
  5
367
330
1F
100
AcDbEntity
  8
0
  6
Continuous
 62
     7
100
AcDbLine
 10
141.0164546856573
 20
148.662431140126
 30
0.0
 11
141.0164546856573
 21
150.362431140126
 31
0.0
  0
LINE
  5
368
330
1F
100
AcDbEntity
  8
0
  6
Continuous
 62
     7
100
AcDbLine
 10
148.2164546856577
 20
151.662431140126
 30
0.0
 11
148.2164546856577
 21
152.162431140126
 31
0.0
  0
LINE
  5
369
330
1F
100
AcDbEntity
  8
0
  6
Continuous
 62
     2
100
AcDbLine
 10
148.2164546856577
 20
151.662431140126
 30
0.0
 11
150.2164546856576
 21
151.662431140126
 31
0.0
  0
LINE
  5
36A
330
1F
100
AcDbEntity
  8
0
  6
Continuous
 62
     2
100
AcDbLine
 10
118.2164546856573
 20
151.6624311401261
 30
0.0
 11
116.2164546856576
 21
151.6624311401261
 31
0.0
  0
LINE
  5
36B
330
1F
100
AcDbEntity
  8
0
  6
Continuous
 62
     7
100
AcDbLine
 10
125.4164546856574
 20
150.362431140126
 30
0.0
 11
141.0164546856573
 21
150.362431140126
 31
0.0
  0
LINE
  5
36C
330
1F
100
AcDbEntity
  8
0
  6
Continuous
 62
     7
100
AcDbLine
 10
77.76645485313009
 20
161.9743435243893
 30
0.0
 11
80.47498568978301
 21
160.4124311401261
 31
0.0
  0
LINE
  5
36D
330
1F
100
AcDbEntity
  8
0
  6
Continuous
 62
     7
100
AcDbLine
 10
82.87933066426581
 20
184.6624311401261
 30
0.0
 11
82.87933066426581
 21
176.7624311401261
 31
0.0
  0
LINE
  5
36E
330
1F
100
AcDbEntity
  8
0
  6
Continuous
 62
     7
100
AcDbLine
 10
82.87933066426581
 20
174.0624311401261
 30
0.0
 11
83.67933066426576
 21
175.4624311401261
 31
0.0
  0
LINE
  5
36F
330
1F
100
AcDbEntity
  8
0
  6
Continuous
 62
     7
100
AcDbLine
 10
83.06645485312993
 20
166.162431140126
 30
0.0
 11
83.06645485312993
 21
148.6624311401261
 31
0.0
  0
LINE
  5
370
330
1F
100
AcDbEntity
  8
0
  6
Continuous
 62
     7
100
AcDbLine
 10
81.86645485313022
 20
148.6624311401261
 30
0.0
 11
83.06645485312993
 21
148.6624311401261
 31
0.0
  0
LINE
  5
371
330
1F
100
AcDbEntity
  8
0
  6
Continuous
 62
     7
100
AcDbLine
 10
86.01645485312974
 20
148.6624311401261
 30
0.0
 11
86.01645485312974
 21
158.6624311401261
 31
0.0
  0
LINE
  5
372
330
1F
100
AcDbEntity
  8
0
  6
Continuous
 62
     7
100
AcDbLine
 10
81.86645485313022
 20
151.662431140126
 30
0.0
 11
81.86645485313022
 21
148.6624311401261
 31
0.0
  0
LINE
  5
373
330
1F
100
AcDbEntity
  8
0
  6
Continuous
 62
     7
100
AcDbLine
 10
74.16645485313018
 20
152.162431140126
 30
0.0
 11
81.36645485313022
 21
152.162431140126
 31
0.0
  0
LINE
  5
374
330
1F
100
AcDbEntity
  8
0
  6
Continuous
 62
     7
100
AcDbLine
 10
80.26646616118
 20
160.4124311401261
 30
0.0
 11
77.76645485313009
 21
161.8540978067928
 31
0.0
  0
LINE
  5
375
330
1F
100
AcDbEntity
  8
0
  6
Continuous
 62
     7
100
AcDbLine
 10
75.05792401647705
 20
160.4124311401261
 30
0.0
 11
77.76645485313009
 21
161.9743435243893
 31
0.0
  0
LINE
  5
376
330
1F
100
AcDbEntity
  8
0
  6
Continuous
 62
     7
100
AcDbLine
 10
80.47498568978301
 20
160.4124311401261
 30
0.0
 11
77.76645485313009
 21
158.8505187558629
 31
0.0
  0
LINE
  5
377
330
1F
100
AcDbEntity
  8
0
  6
Continuous
 62
     7
100
AcDbLine
 10
78.49562534772804
 20
159.7639588947661
 30
0.0
 11
78.49562534772804
 21
161.0609033854863
 31
0.0
  0
LINE
  5
378
330
1F
100
AcDbEntity
  8
0
  6
Continuous
 62
     7
100
AcDbLine
 10
78.28728981663528
 20
161.301181163264
 30
0.0
 11
78.28729054230712
 21
159.5236811169883
 31
0.0
  0
LINE
  5
379
330
1F
100
AcDbEntity
  8
0
  6
Continuous
 62
     7
100
AcDbLine
 10
78.07895626663628
 20
159.5236811169883
 30
0.0
 11
78.07895626663628
 21
161.0223335731195
 31
0.0
  0
LINE
  5
37A
330
1F
100
AcDbEntity
  8
0
  6
Continuous
 62
     7
100
AcDbLine
 10
77.76645485313009
 20
158.9707644734595
 30
0.0
 11
80.26646616118
 21
160.4124311401261
 31
0.0
  0
LINE
  5
37B
330
1F
100
AcDbEntity
  8
0
  6
Continuous
 62
     7
100
AcDbLine
 10
79.22479478282594
 20
160.3082644734595
 30
0.0
 11
78.70395909364879
 21
160.3082644734595
 31
0.0
  0
LINE
  5
37C
330
1F
100
AcDbEntity
  8
0
  6
Continuous
 62
     7
100
AcDbLine
 10
78.70395909364879
 20
159.9442740568071
 30
0.0
 11
79.17275748599559
 21
160.2146132402567
 31
0.0
  0
LINE
  5
37D
330
1F
100
AcDbEntity
  8
0
  6
Continuous
 62
     7
100
AcDbLine
 10
78.70395909364879
 20
160.3082644734595
 30
0.0
 11
78.70395909364879
 21
159.9442740568071
 31
0.0
  0
LINE
  5
37E
330
1F
100
AcDbEntity
  8
0
  6
Continuous
 62
     7
100
AcDbLine
 10
79.27683207965617
 20
160.0341378826086
 30
0.0
 11
78.65182951728252
 21
159.6737207570287
 31
0.0
  0
LINE
  5
37F
330
1F
100
AcDbEntity
  8
0
  6
Continuous
 62
     7
100
AcDbLine
 10
78.70395909364879
 20
160.8805882234453
 30
0.0
 11
78.70395909364879
 21
160.5165978067927
 31
0.0
  0
LINE
  5
380
330
1F
100
AcDbEntity
  8
0
  6
Continuous
 62
     7
100
AcDbLine
 10
77.76645430518954
 20
160.9801918408599
 30
0.0
 11
78.10446814898728
 21
161.3694764952982
 31
0.0
  0
LINE
  5
381
330
1F
100
AcDbEntity
  8
0
  6
Continuous
 62
     7
100
AcDbLine
 10
78.70395909364879
 20
160.5165978067927
 30
0.0
 11
79.22479478282594
 21
160.5165978067927
 31
0.0
  0
LINE
  5
382
330
1F
100
AcDbEntity
  8
0
  6
Continuous
 62
     7
100
AcDbLine
 10
79.17275748599559
 20
160.6102490399955
 30
0.0
 11
78.70395909364879
 21
160.8805882234453
 31
0.0
  0
LINE
  5
383
330
1F
100
AcDbEntity
  8
0
  6
Continuous
 62
     7
100
AcDbLine
 10
77.76645485313009
 20
160.6624311401261
 30
0.0
 11
77.45395343962377
 21
161.0223335731196
 31
0.0
  0
LINE
  5
384
330
1F
100
AcDbEntity
  8
0
  6
Continuous
 62
     7
100
AcDbLine
 10
78.65182925264367
 20
161.1511410643103
 30
0.0
 11
79.27683207965617
 21
160.7907243976436
 31
0.0
  0
LINE
  5
385
330
1F
100
AcDbEntity
  8
0
  6
Continuous
 62
     7
100
AcDbLine
 10
78.07895626663628
 20
161.0223335731195
 30
0.0
 11
77.76645485313009
 21
160.6624311401261
 31
0.0
  0
LINE
  5
386
330
1F
100
AcDbEntity
  8
0
  6
Continuous
 62
     7
100
AcDbLine
 10
77.42844100933235
 20
161.3694760195244
 30
0.0
 11
77.76645430518954
 21
160.9801918408599
 31
0.0
  0
LINE
  5
387
330
1F
100
AcDbEntity
  8
0
  6
Continuous
 62
     7
100
AcDbLine
 10
77.45395343962377
 20
161.0223335731196
 30
0.0
 11
77.45395343962377
 21
160.0042366725439
 31
0.0
  0
LINE
  5
388
330
1F
100
AcDbEntity
  8
0
  6
Continuous
 62
     7
100
AcDbLine
 10
77.76645485313009
 20
158.8505187558629
 30
0.0
 11
75.05792401647705
 21
160.4124311401261
 31
0.0
  0
LINE
  5
389
330
1F
100
AcDbEntity
  8
0
  6
Continuous
 62
     7
100
AcDbLine
 10
75.26644354508005
 20
160.4124311401261
 30
0.0
 11
77.76645485313009
 21
158.9707644734595
 31
0.0
  0
LINE
  5
38A
330
1F
100
AcDbEntity
  8
0
  6
Continuous
 62
     7
100
AcDbLine
 10
77.71441755629985
 20
159.1931656603865
 30
0.0
 11
76.88108042414228
 21
159.6737211648305
 31
0.0
  0
LINE
  5
38B
330
1F
100
AcDbEntity
  8
0
  6
Continuous
 62
     7
100
AcDbLine
 10
77.76645485313009
 20
161.8540978067928
 30
0.0
 11
75.26644354508005
 21
160.4124311401261
 31
0.0
  0
LINE
  5
38C
330
1F
100
AcDbEntity
  8
0
  6
Continuous
 62
     7
100
AcDbLine
 10
77.24561916395305
 20
160.0042366725438
 30
0.0
 11
77.24561988962478
 21
161.301181163264
 31
0.0
  0
LINE
  5
38D
330
1F
100
AcDbEntity
  8
0
  6
Continuous
 62
     7
100
AcDbLine
 10
76.82895061261138
 20
159.7639588947661
 30
0.0
 11
76.82895061261138
 21
161.0609033854861
 31
0.0
  0
LINE
  5
38E
330
1F
100
AcDbEntity
  8
0
  6
Continuous
 62
     7
100
AcDbLine
 10
77.0372848882821
 20
161.0609033854863
 30
0.0
 11
77.0372848882821
 21
159.8241351679182
 31
0.0
  0
LINE
  5
38F
330
1F
100
AcDbEntity
  8
0
  6
Continuous
 62
     7
100
AcDbLine
 10
77.0372848882821
 20
159.8241351679182
 30
0.0
 11
77.81849214996032
 21
159.3736410180346
 31
0.0
  0
LINE
  5
390
330
1F
100
AcDbEntity
  8
0
  6
Continuous
 62
     7
100
AcDbLine
 10
76.62061633694043
 20
160.8206256077085
 30
0.0
 11
76.62061633694043
 21
160.0042366725438
 31
0.0
  0
LINE
  5
391
330
1F
100
AcDbEntity
  8
0
  6
Continuous
 62
     7
100
AcDbLine
 10
76.4122820612697
 20
160.0042366725438
 30
0.0
 11
76.4122820612697
 21
160.8206256077085
 31
0.0
  0
LINE
  5
392
330
1F
100
AcDbEntity
  8
0
  6
Continuous
 62
     7
100
AcDbLine
 10
76.32933066426574
 20
175.4624311401262
 30
0.0
 11
76.32933066426574
 21
176.7624311401261
 31
0.0
  0
LINE
  5
393
330
1F
100
AcDbEntity
  8
0
  6
Continuous
 62
     7
100
AcDbLine
 10
82.87933066426581
 20
176.7624311401261
 30
0.0
 11
76.32933066426574
 21
176.7624311401261
 31
0.0
  0
LINE
  5
394
330
1F
100
AcDbEntity
  8
0
  6
Continuous
 62
     7
100
AcDbLine
 10
76.32933066426574
 20
175.4624311401262
 30
0.0
 11
83.67933066426576
 21
175.4624311401261
 31
0.0
  0
LINE
  5
395
330
1F
100
AcDbEntity
  8
0
  6
Continuous
 62
     7
100
AcDbLine
 10
84.32933066426574
 20
168.6624311401261
 30
0.0
 11
75.61645485312977
 21
168.6624311401261
 31
0.0
  0
LINE
  5
396
330
1F
100
AcDbEntity
  8
0
  6
Continuous
 62
     7
100
AcDbLine
 10
83.06645485312993
 20
166.162431140126
 30
0.0
 11
85.11645485312977
 21
166.1624311401261
 31
0.0
  0
LINE
  5
397
330
1F
100
AcDbEntity
  8
0
  6
Continuous
 62
     7
100
AcDbLine
 10
86.01645485312974
 20
158.6624311401261
 30
0.0
 11
85.11645485312977
 21
158.6624311401261
 31
0.0
  0
LINE
  5
398
330
1F
100
AcDbEntity
  8
0
  6
Continuous
 62
     7
100
AcDbLine
 10
85.11645485312977
 20
168.6624311401261
 30
0.0
 11
84.32933066426574
 21
168.6624311401261
 31
0.0
  0
LINE
  5
399
330
1F
100
AcDbEntity
  8
0
  6
Continuous
 62
     7
100
AcDbLine
 10
76.32933066426574
 20
174.0624311401261
 30
0.0
 11
82.87933066426581
 21
174.0624311401261
 31
0.0
  0
LINE
  5
39A
330
1F
100
AcDbEntity
  8
0
  6
Continuous
 62
     7
100
AcDbLine
 10
82.87933066426581
 20
174.0624311401261
 30
0.0
 11
84.32933066426574
 21
174.0624311401261
 31
0.0
  0
LINE
  5
39B
330
1F
100
AcDbEntity
  8
0
  6
Continuous
 62
     7
100
AcDbLine
 10
76.32933066426574
 20
174.0624311401261
 30
0.0
 11
76.32933066426574
 21
175.4624311401262
 31
0.0
  0
LINE
  5
39C
330
1F
100
AcDbEntity
  8
0
  6
Continuous
 62
     7
100
AcDbLine
 10
84.32933066426574
 20
174.0624311401261
 30
0.0
 11
84.32933066426574
 21
168.6624311401261
 31
0.0
  0
LINE
  5
39D
330
1F
100
AcDbEntity
  8
0
  6
Continuous
 62
     7
100
AcDbLine
 10
83.06645485312993
 20
148.6624311401261
 30
0.0
 11
85.11645485312977
 21
148.6624311401261
 31
0.0
  0
LINE
  5
39E
330
1F
100
AcDbEntity
  8
0
  6
Continuous
 62
     7
100
AcDbLine
 10
86.01645485312974
 20
148.6624311401261
 30
0.0
 11
85.11645485312977
 21
148.6624311401261
 31
0.0
  0
LINE
  5
39F
330
1F
100
AcDbEntity
  8
0
  6
Continuous
 62
     7
100
AcDbLine
 10
81.86645485313022
 20
148.6624311401261
 30
0.0
 11
73.66645485313029
 21
148.6624311401261
 31
0.0
  0
LINE
  5
3A0
330
1F
100
AcDbEntity
  8
0
  6
Continuous
 62
     7
100
AcDbLine
 10
70.41645485312972
 20
148.6624311401261
 30
0.0
 11
72.46645485312979
 21
148.6624311401261
 31
0.0
  0
LINE
  5
3A1
330
1F
100
AcDbEntity
  8
0
  6
Continuous
 62
     7
100
AcDbLine
 10
83.67933066426576
 20
175.4624311401261
 30
0.0
 11
83.67933066426576
 21
176.7624311401261
 31
0.0
  0
LINE
  5
3A2
330
1F
100
AcDbEntity
  8
0
  6
Continuous
 62
     7
100
AcDbLine
 10
85.11645485312977
 20
158.6624311401261
 30
0.0
 11
85.11645485312977
 21
166.1624311401261
 31
0.0
  0
LINE
  5
3A3
330
1F
100
AcDbEntity
  8
0
  6
Continuous
 62
     7
100
AcDbLine
 10
85.11645485312977
 20
148.6624311401261
 30
0.0
 11
85.11645485312977
 21
158.6624311401261
 31
0.0
  0
LINE
  5
3A4
330
1F
100
AcDbEntity
  8
0
  6
Continuous
 62
     7
100
AcDbLine
 10
85.11645485312977
 20
166.1624311401261
 30
0.0
 11
85.11645485312977
 21
168.6624311401261
 31
0.0
  0
LINE
  5
3A5
330
1F
100
AcDbEntity
  8
0
  6
Continuous
 62
     7
100
AcDbLine
 10
84.32933066426574
 20
184.6624311401261
 30
0.0
 11
84.32933066426574
 21
174.0624311401261
 31
0.0
  0
LINE
  5
3A6
330
1F
100
AcDbEntity
  8
0
  6
Continuous
 62
     7
100
AcDbLine
 10
83.67933066426576
 20
176.7624311401261
 30
0.0
 11
82.87933066426581
 21
176.7624311401261
 31
0.0
  0
LINE
  5
3A7
330
1F
100
AcDbEntity
  8
0
  6
Continuous
 62
     7
100
AcDbLine
 10
84.32933066426574
 20
184.6624311401261
 30
0.0
 11
82.87933066426581
 21
184.6624311401261
 31
0.0
  0
LINE
  5
3A8
330
1F
100
AcDbEntity
  8
0
  6
Continuous
 62
     7
100
AcDbLine
 10
71.12933066426581
 20
184.6624311401261
 30
0.0
 11
71.12933066426581
 21
168.6624311401261
 31
0.0
  0
LINE
  5
3A9
330
1F
100
AcDbEntity
  8
0
  6
Continuous
 62
     7
100
AcDbLine
 10
70.41645485312972
 20
166.1624311401261
 30
0.0
 11
70.41645485312972
 21
148.6624311401261
 31
0.0
  0
LINE
  5
3AA
330
1F
100
AcDbEntity
  8
0
  6
Continuous
 62
     7
100
AcDbLine
 10
71.41645485312972
 20
182.8624311401262
 30
0.0
 11
75.61645485312977
 21
182.8624311401262
 31
0.0
  0
LINE
  5
3AB
330
1F
100
AcDbEntity
  8
0
  6
Continuous
 62
     7
100
AcDbLine
 10
70.41645485312972
 20
168.6624311401261
 30
0.0
 11
70.41645485312972
 21
166.1624311401261
 31
0.0
  0
LINE
  5
3AC
330
1F
100
AcDbEntity
  8
0
  6
Continuous
 62
     7
100
AcDbLine
 10
70.41645485312972
 20
166.1624311401261
 30
0.0
 11
72.46645485312979
 21
166.162431140126
 31
0.0
  0
LINE
  5
3AD
330
1F
100
AcDbEntity
  8
0
  6
Continuous
 62
     7
100
AcDbLine
 10
75.61645485312977
 20
168.6624311401261
 30
0.0
 11
75.61645485312977
 21
182.8624311401262
 31
0.0
  0
LINE
  5
3AE
330
1F
100
AcDbEntity
  8
0
  6
Continuous
 62
     7
100
AcDbLine
 10
73.66645485313029
 20
151.662431140126
 30
0.0
 11
73.66645485313029
 21
148.6624311401261
 31
0.0
  0
LINE
  5
3AF
330
1F
100
AcDbEntity
  8
0
  6
Continuous
 62
     7
100
AcDbLine
 10
75.61645485312977
 20
168.6624311401261
 30
0.0
 11
71.41645485312972
 21
168.6624311401261
 31
0.0
  0
LINE
  5
3B0
330
1F
100
AcDbEntity
  8
0
  6
Continuous
 62
     7
100
AcDbLine
 10
71.12933066426581
 20
168.6624311401261
 30
0.0
 11
70.41645485312972
 21
168.6624311401261
 31
0.0
  0
LINE
  5
3B1
330
1F
100
AcDbEntity
  8
0
  6
Continuous
 62
     7
100
AcDbLine
 10
71.41645485312972
 20
168.6624311401261
 30
0.0
 11
71.12933066426581
 21
168.6624311401261
 31
0.0
  0
LINE
  5
3B2
330
1F
100
AcDbEntity
  8
0
  6
Continuous
 62
     7
100
AcDbLine
 10
71.41645485312972
 20
168.6624311401261
 30
0.0
 11
71.41645485312972
 21
182.8624311401262
 31
0.0
  0
LINE
  5
3B3
330
1F
100
AcDbEntity
  8
0
  6
Continuous
 62
     7
100
AcDbLine
 10
72.46645485312979
 20
148.6624311401261
 30
0.0
 11
72.46645485312979
 21
166.162431140126
 31
0.0
  0
LINE
  5
3B4
330
1F
100
AcDbEntity
  8
0
  6
Continuous
 62
     7
100
AcDbLine
 10
72.46645485312979
 20
148.6624311401261
 30
0.0
 11
73.66645485313029
 21
148.6624311401261
 31
0.0
  0
LINE
  5
3B5
330
1F
100
AcDbEntity
  8
0
  6
Continuous
 62
     7
100
AcDbLine
 10
82.87933066426581
 20
184.6624311401261
 30
0.0
 11
71.12933066426581
 21
184.6624311401261
 31
0.0
  0
ARC
  5
3B6
330
1F
100
AcDbEntity
  8
0
  6
Continuous
 62
     7
100
AcDbCircle
 10
78.59979242656243
 20
159.763958894766
 30
0.0
 40
0.1041670788343936
100
AcDbArc
 50
179.9999999999531
 51
299.970503496749
  0
ARC
  5
3B7
330
1F
100
AcDbEntity
  8
0
  6
Continuous
 62
     7
100
AcDbCircle
 10
78.18312269293142
 20
161.301181163264
 30
0.0
 40
0.1041671237038599
100
AcDbArc
 50
0.0
 51
139.0323874797391
  0
ARC
  5
3B8
330
1F
100
AcDbEntity
  8
0
  6
Continuous
 62
     7
100
AcDbCircle
 10
78.59979216168733
 20
161.0609032324698
 30
0.0
 40
0.1041668139595045
100
AcDbArc
 50
60.02941233816927
 51
179.9999158349942
  0
ARC
  5
3B9
330
1F
100
AcDbEntity
  8
0
  6
Continuous
 62
     7
100
AcDbCircle
 10
76.93311725019714
 20
159.7639589458319
 30
0.0
 40
0.1041666375857756
100
AcDbArc
 50
180.0000280882124
 51
240.0295245915815
  0
ARC
  5
3BA
330
1F
100
AcDbEntity
  8
0
  6
Continuous
 62
     7
100
AcDbCircle
 10
77.34978665049266
 20
161.3011810277223
 30
0.0
 40
0.1041667608680024
100
AcDbArc
 50
40.9675379668323
 51
179.9999254467746
  0
ARC
  5
3BB
330
1F
100
AcDbEntity
  8
0
  6
Continuous
 62
     7
100
AcDbCircle
 10
81.36645485313022
 20
151.662431140126
 30
0.0
 40
0.5
100
AcDbArc
 50
0.0
 51
90.0
  0
ARC
  5
3BC
330
1F
100
AcDbEntity
  8
0
  6
Continuous
 62
     7
100
AcDbCircle
 10
74.16645485313018
 20
151.662431140126
 30
0.0
 40
0.5
100
AcDbArc
 50
90.0
 51
180.0
  0
SPLINE
  5
3BD
330
1F
100
AcDbEntity
  8
0
  6
Continuous
 62
     7
100
AcDbSpline
210
0.0
220
0.0
230
1.0
 70
     8
 71
     3
 72
     9
 73
     5
 74
     3
 42
0.000000001
 43
0.0000000001
 44
0.00000001
 40
0.0
 40
0.0
 40
0.0
 40
0.0
 40
0.1029638051847102
 40
0.2383355350532607
 40
0.2383355350532607
 40
0.2383355350532607
 40
0.2383355350532607
 10
169.3632998617901
 20
280.7625631329236
 30
0.0
 10
169.3538078116829
 20
280.7282262301442
 30
0.0
 10
169.3318360654661
 20
280.6487448709495
 30
0.0
 10
169.2585046347382
 20
280.6085924975467
 30
0.0
 10
169.2168532523833
 20
280.5857864376269
 30
0.0
 11
169.3632998617901
 21
280.7625631329236
 31
0.0
 11
169.3252382235202
 21
280.666892565719
 31
0.0
 11
169.2168532523833
 21
280.5857864376269
 31
0.0
  0
SPLINE
  5
3BE
330
1F
100
AcDbEntity
  8
0
  6
Continuous
 62
     7
100
AcDbSpline
210
0.0
220
0.0
230
1.0
 70
     8
 71
     3
 72
     9
 73
     5
 74
     3
 42
0.000000001
 43
0.0000000001
 44
0.00000001
 40
0.0
 40
0.0
 40
0.0
 40
0.0
 40
0.1353717298685505
 40
0.2383355350531551
 40
0.2383355350531551
 40
0.2383355350531551
 40
0.2383355350531551
 10
169.2168532523833
 20
280.9393398282202
 30
0.0
 10
169.2585046347383
 20
280.9165337683002
 30
0.0
 10
169.3318360654661
 20
280.8763813948976
 30
0.0
 10
169.3538078116829
 20
280.7969000357029
 30
0.0
 10
169.3632998617901
 20
280.7625631329236
 30
0.0
 11
169.2168532523833
 21
280.9393398282202
 31
0.0
 11
169.3252382235202
 21
280.8582337001281
 31
0.0
 11
169.3632998617901
 21
280.7625631329236
 31
0.0
  0
SPLINE
  5
3BF
330
1F
100
AcDbEntity
  8
0
  6
Continuous
 62
     7
100
AcDbSpline
210
0.0
220
0.0
230
1.0
 70
     8
 71
     3
 72
    11
 73
     7
 74
     5
 42
0.000000001
 43
0.0000000001
 44
0.00000001
 40
0.0
 40
0.0
 40
0.0
 40
0.0
 40
0.1710252651245859
 40
0.3633104721066782
 40
0.5555956790887677
 40
0.7266209442133627
 40
0.7266209442133627
 40
0.7266209442133627
 40
0.7266209442133627
 10
164.8327912090264
 20
248.9488916872779
 30
0.0
 10
164.7793460187685
 20
248.9282231810214
 30
0.0
 10
164.6658119272285
 20
248.8843169064458
 30
0.0
 10
164.4792378184331
 20
248.8710910918703
 30
0.0
 10
164.2926637096378
 20
248.8843169064458
 30
0.0
 10
164.1791296180978
 20
248.9282231810213
 30
0.0
 10
164.1256844278399
 20
248.9488916872779
 30
0.0
 11
164.8327912090264
 21
248.9488916872779
 31
0.0
 11
164.6705789528422
 21
248.8946992017095
 31
0.0
 11
164.4792378184331
 21
248.8756683825745
 31
0.0
 11
164.2878966840241
 21
248.8946992017094
 31
0.0
 11
164.1256844278399
 21
248.9488916872779
 31
0.0
  0
SPLINE
  5
3C0
330
1F
100
AcDbEntity
  8
0
  6
Continuous
 62
     7
100
AcDbSpline
210
0.0
220
0.0
230
1.0
 70
     8
 71
     3
 72
    11
 73
     7
 74
     5
 42
0.000000001
 43
0.0000000001
 44
0.00000001
 40
0.0
 40
0.0
 40
0.0
 40
0.0
 40
0.1710252651246308
 40
0.3633104721066921
 40
0.5555956790888155
 40
0.7266209442134013
 40
0.7266209442134013
 40
0.7266209442134013
 40
0.7266209442134013
 10
164.8327912090267
 20
277.0152579989733
 30
0.0
 10
164.8862363992848
 20
276.9945894927169
 30
0.0
 10
164.9997704908246
 20
276.9506832181413
 30
0.0
 10
165.18634459962
 20
276.9374574035658
 30
0.0
 10
165.3729187084154
 20
276.9506832181414
 30
0.0
 10
165.4864527999553
 20
276.9945894927168
 30
0.0
 10
165.5398979902133
 20
277.0152579989733
 30
0.0
 11
164.8327912090267
 21
277.0152579989733
 31
0.0
 11
164.995003465211
 21
276.9610655134049
 31
0.0
 11
165.18634459962
 21
276.94203469427
 31
0.0
 11
165.3776857340291
 21
276.9610655134049
 31
0.0
 11
165.5398979902133
 21
277.0152579989733
 31
0.0
  0
SPLINE
  5
3C1
330
1F
100
AcDbEntity
  8
0
  6
Continuous
 62
     7
100
AcDbSpline
210
0.0
220
0.0
230
1.0
 70
     8
 71
     3
 72
     9
 73
     5
 74
     3
 42
0.000000001
 43
0.0000000001
 44
0.00000001
 40
0.0
 40
0.0
 40
0.0
 40
0.0
 40
0.1029638051846574
 40
0.238335535053242
 40
0.238335535053242
 40
0.238335535053242
 40
0.238335535053242
 10
169.3632998617901
 20
279.030512325355
 30
0.0
 10
169.3538078116829
 20
278.9961754225758
 30
0.0
 10
169.3318360654661
 20
278.9166940633809
 30
0.0
 10
169.2585046347383
 20
278.8765416899783
 30
0.0
 10
169.2168532523833
 20
278.8537356300583
 30
0.0
 11
169.3632998617901
 21
279.030512325355
 31
0.0
 11
169.3252382235202
 21
278.9348417581505
 31
0.0
 11
169.2168532523833
 21
278.8537356300583
 31
0.0
  0
SPLINE
  5
3C2
330
1F
100
AcDbEntity
  8
0
  6
Continuous
 62
     7
100
AcDbSpline
210
0.0
220
0.0
230
1.0
 70
     8
 71
     3
 72
    11
 73
     7
 74
     5
 42
0.000000001
 43
0.0000000001
 44
0.00000001
 40
0.0
 40
0.0
 40
0.0
 40
0.0
 40
0.1710252651246578
 40
0.3633104721067585
 40
0.5555956790888537
 40
0.7266209442134486
 40
0.7266209442134486
 40
0.7266209442134486
 40
0.7266209442134486
 10
164.8327912090267
 20
278.7473088065419
 30
0.0
 10
164.8862363992847
 20
278.7266403002854
 30
0.0
 10
164.9997704908246
 20
278.6827340257098
 30
0.0
 10
165.1863445996201
 20
278.6695082111343
 30
0.0
 10
165.3729187084153
 20
278.6827340257098
 30
0.0
 10
165.4864527999553
 20
278.7266403002854
 30
0.0
 10
165.5398979902133
 20
278.7473088065419
 30
0.0
 11
164.8327912090267
 21
278.7473088065419
 31
0.0
 11
164.995003465211
 21
278.6931163209735
 31
0.0
 11
165.18634459962
 21
278.6740855018385
 31
0.0
 11
165.3776857340291
 21
278.6931163209734
 31
0.0
 11
165.5398979902133
 21
278.7473088065419
 31
0.0
  0
SPLINE
  5
3C3
330
1F
100
AcDbEntity
  8
0
  6
Continuous
 62
     7
100
AcDbSpline
210
0.0
220
0.0
230
1.0
 70
     8
 71
     3
 72
    15
 73
    11
 74
     9
 42
0.000000001
 43
0.0000000001
 44
0.00000001
 40
0.0
 40
0.0
 40
0.0
 40
0.0
 40
0.0406437567720623
 40
0.0812875654419521
 40
0.1219314456152096
 40
0.1625753758422488
 40
0.203219306069288
 40
0.2438631862425455
 40
0.2845069949124354
 40
0.3251507516844977
 40
0.3251507516844977
 40
0.3251507516844977
 40
0.3251507516844977
 10
76.62061633694043
 20
160.8206256077085
 30
0.0
 10
76.61905037850566
 20
160.8342590816018
 30
0.0
 10
76.61591844718754
 20
160.8615260441543
 30
0.0
 10
76.59183052709665
 20
160.896200369265
 30
0.0
 10
76.55739820707352
 20
160.9193679515972
 30
0.0
 10
76.51644919910505
 20
160.9275044224341
 30
0.0
 10
76.47550019113666
 20
160.9193679515972
 30
0.0
 10
76.44106787111346
 20
160.8962003692651
 30
0.0
 10
76.4169799510226
 20
160.8615260441542
 30
0.0
 10
76.41384801970445
 20
160.8342590816019
 30
0.0
 10
76.4122820612697
 20
160.8206256077085
 30
0.0
 11
76.62061633694043
 21
160.8206256077085
 31
0.0
 11
76.61268679310064
 21
160.8604883440437
 31
0.0
 11
76.59010648864523
 21
160.8942825640821
 31
0.0
 11
76.55631211574818
 21
160.9168627664022
 31
0.0
 11
76.51644919910507
 21
160.9247922743751
 31
0.0
 11
76.47658628246195
 21
160.9168627664022
 31
0.0
 11
76.4427919095649
 21
160.8942825640821
 31
0.0
 11
76.4202116051095
 21
160.8604883440437
 31
0.0
 11
76.4122820612697
 21
160.8206256077085
 31
0.0
  0
SPLINE
  5
3C4
330
1F
100
AcDbEntity
  8
0
  6
Continuous
 62
     7
100
AcDbSpline
210
0.0
220
0.0
230
1.0
 70
     8
 71
     3
 72
    15
 73
    11
 74
     9
 42
0.000000001
 43
0.0000000001
 44
0.00000001
 40
0.0
 40
0.0
 40
0.0
 40
0.0
 40
0.0406437567720066
 40
0.0812875654418964
 40
0.1219314456151539
 40
0.1625753758422042
 40
0.2032193060692489
 40
0.2438631862425222
 40
0.284506994912412
 40
0.3251507516846138
 40
0.3251507516846138
 40
0.3251507516846138
 40
0.3251507516846138
 10
77.0372848882821
 20
161.0609033854863
 30
0.0
 10
77.03571892984736
 20
161.0745368593797
 30
0.0
 10
77.03258699852918
 20
161.101803821932
 30
0.0
 10
77.0084990784383
 20
161.1364781470428
 30
0.0
 10
76.97406675841519
 20
161.1596457293749
 30
0.0
 10
76.93311775044674
 20
161.1677822002119
 30
0.0
 10
76.8921687424783
 20
161.1596457293749
 30
0.0
 10
76.85773642245515
 20
161.1364781470429
 30
0.0
 10
76.83364850236427
 20
161.1018038219319
 30
0.0
 10
76.83051657104609
 20
161.0745368593795
 30
0.0
 10
76.82895061261138
 20
161.0609033854861
 30
0.0
 11
77.0372848882821
 21
161.0609033854863
 31
0.0
 11
77.02935534444231
 21
161.1007661218214
 31
0.0
 11
77.0067750399869
 21
161.1345603418598
 31
0.0
 11
76.97298066708986
 21
161.15714054418
 31
0.0
 11
76.93311775044674
 21
161.1650700521529
 31
0.0
 11
76.89325483380362
 21
161.15714054418
 31
0.0
 11
76.85946046090658
 21
161.1345603418598
 31
0.0
 11
76.83688015645117
 21
161.1007661218214
 31
0.0
 11
76.82895061261138
 21
161.0609033854861
 31
0.0
  0
SPLINE
  5
3C5
330
1F
100
AcDbEntity
  8
0
  6
Continuous
 62
     7
100
AcDbSpline
210
0.0
220
0.0
230
1.0
 70
     8
 71
     3
 72
    15
 73
    11
 74
     9
 42
0.000000001
 43
0.0000000001
 44
0.00000001
 40
0.0
 40
0.0
 40
0.0
 40
0.0
 40
0.0406437567721181
 40
0.0812875654420079
 40
0.1219314456152654
 40
0.1625753758423157
 40
0.2032193060693604
 40
0.2438631862426337
 40
0.2845069949125235
 40
0.3251507516846416
 40
0.3251507516846416
 40
0.3251507516846416
 40
0.3251507516846416
 10
76.4122820612697
 20
160.0042366725438
 30
0.0
 10
76.41384801970446
 20
159.9906031986505
 30
0.0
 10
76.4169799510226
 20
159.9633362360981
 30
0.0
 10
76.44106787111346
 20
159.9286619109871
 30
0.0
 10
76.47550019113666
 20
159.9054943286552
 30
0.0
 10
76.51644919910504
 20
159.897357857818
 30
0.0
 10
76.55739820707349
 20
159.9054943286551
 30
0.0
 10
76.59183052709668
 20
159.9286619109872
 30
0.0
 10
76.61591844718754
 20
159.9633362360981
 30
0.0
 10
76.61905037850568
 20
159.9906031986504
 30
0.0
 10
76.62061633694043
 20
160.0042366725438
 30
0.0
 11
76.4122820612697
 21
160.0042366725438
 31
0.0
 11
76.4202116051095
 21
159.9643739362086
 31
0.0
 11
76.4427919095649
 21
159.9305797161702
 31
0.0
 11
76.47658628246195
 21
159.90799951385
 31
0.0
 11
76.51644919910507
 21
159.9000700058771
 31
0.0
 11
76.55631211574818
 21
159.90799951385
 31
0.0
 11
76.59010648864523
 21
159.9305797161702
 31
0.0
 11
76.61268679310064
 21
159.9643739362086
 31
0.0
 11
76.62061633694043
 21
160.0042366725438
 31
0.0
  0
SPLINE
  5
3C6
330
1F
100
AcDbEntity
  8
0
  6
Continuous
 62
     7
100
AcDbSpline
210
0.0
220
0.0
230
1.0
 70
     8
 71
     3
 72
    15
 73
    11
 74
     9
 42
0.000000001
 43
0.0000000001
 44
0.00000001
 40
0.0
 40
0.0
 40
0.0
 40
0.0
 40
0.0406437567721181
 40
0.0812875654420079
 40
0.1219314456152654
 40
0.1625753758423157
 40
0.2032193060693604
 40
0.2438631862426337
 40
0.2845069949125235
 40
0.3251507516847252
 40
0.3251507516847252
 40
0.3251507516847252
 40
0.3251507516847252
 10
77.24561916395305
 20
160.0042366725438
 30
0.0
 10
77.24718512238779
 20
159.9906031986505
 30
0.0
 10
77.25031705370596
 20
159.9633362360981
 30
0.0
 10
77.2744049737968
 20
159.9286619109871
 30
0.0
 10
77.30883729382
 20
159.9054943286552
 30
0.0
 10
77.34978630178841
 20
159.897357857818
 30
0.0
 10
77.39073530975682
 20
159.9054943286551
 30
0.0
 10
77.42516762978002
 20
159.9286619109872
 30
0.0
 10
77.4492555498709
 20
159.9633362360981
 30
0.0
 10
77.452387481189
 20
159.9906031986505
 30
0.0
 10
77.45395343962377
 20
160.0042366725439
 30
0.0
 11
77.24561916395305
 21
160.0042366725438
 31
0.0
 11
77.25354870779285
 21
159.9643739362086
 31
0.0
 11
77.27612901224825
 21
159.9305797161702
 31
0.0
 11
77.3099233851453
 21
159.90799951385
 31
0.0
 11
77.34978630178841
 21
159.9000700058771
 31
0.0
 11
77.38964921843153
 21
159.90799951385
 31
0.0
 11
77.42344359132858
 21
159.9305797161702
 31
0.0
 11
77.44602389578398
 21
159.9643739362086
 31
0.0
 11
77.45395343962377
 21
160.0042366725439
 31
0.0
  0
SPLINE
  5
3C7
330
1F
100
AcDbEntity
  8
0
  6
Continuous
 62
     7
100
AcDbSpline
210
0.0
220
0.0
230
1.0
 70
     8
 71
     3
 72
    15
 73
    11
 74
     9
 42
0.000000001
 43
0.0000000001
 44
0.00000001
 40
0.0
 40
0.0
 40
0.0
 40
0.0
 40
0.0406439146784221
 40
0.0812878496477055
 40
0.1219317505248936
 40
0.1625755837391945
 40
0.2032193560599909
 40
0.2438631099337118
 40
0.2845068978996662
 40
0.3251507516847221
 40
0.3251507516847221
 40
0.3251507516847221
 40
0.3251507516847221
 10
77.71441755629985
 20
159.1931656603865
 30
0.0
 10
77.7270103213785
 20
159.1877115349493
 30
0.0
 10
77.7521958617521
 20
159.1768032934565
 30
0.0
 10
77.79426694825487
 20
159.1803483459414
 30
0.0
 10
77.83153756428429
 20
159.198602774039
 30
0.0
 10
77.85904242209789
 20
159.2300113782894
 30
0.0
 10
77.87245024725743
 20
159.2695492618882
 30
0.0
 10
77.8695813515344
 20
159.3109507568292
 30
0.0
 10
77.85157670813007
 20
159.3491393377095
 30
0.0
 10
77.8295203448061
 20
159.3654737900055
 30
0.0
 10
77.81849214996032
 20
159.3736410180346
 30
0.0
 11
77.71441755629985
 21
159.1931656603865
 31
0.0
 11
77.75291132169951
 21
159.1801211874255
 31
0.0
 11
77.79346689089795
 21
159.1827999055674
 31
0.0
 11
77.82990997045454
 21
159.2007951497095
 31
0.0
 11
77.85669294011899
 21
159.2313662777553
 31
0.0
 11
77.86973747208287
 21
159.26985986904
 31
0.0
 11
77.86705874182451
 21
159.3104152547974
 31
0.0
 11
77.84906341628604
 21
159.3468581695147
 31
0.0
 11
77.81849214996032
 21
159.3736410180346
 31
0.0
  0
SPLINE
  5
3C8
330
1F
100
AcDbEntity
  8
0
  6
Continuous
 62
     7
100
AcDbSpline
210
0.0
220
0.0
230
1.0
 70
     8
 71
     3
 72
    15
 73
    11
 74
     9
 42
0.000000001
 43
0.0000000001
 44
0.00000001
 40
0.0
 40
0.0
 40
0.0
 40
0.0
 40
0.0406439266175602
 40
0.0812878056428102
 40
0.1219316154607432
 40
0.1625753758422677
 40
0.2032191362237922
 40
0.2438629460417253
 40
0.284506825066991
 40
0.3251507516845457
 40
0.3251507516845457
 40
0.3251507516845457
 40
0.3251507516845457
 10
79.22479478282594
 20
160.3082644734595
 30
0.0
 10
79.2384283126317
 20
160.3098304215138
 30
0.0
 10
79.26569535363606
 20
160.3129623282376
 30
0.0
 10
79.30036983292871
 20
160.3370500979962
 30
0.0
 10
79.32353755634205
 20
160.3714822674014
 30
0.0
 10
79.33167408617147
 20
160.4124311401261
 30
0.0
 10
79.32353755634205
 20
160.4533800128509
 30
0.0
 10
79.30036983292868
 20
160.487812182256
 30
0.0
 10
79.26569535363609
 20
160.5118999520147
 30
0.0
 10
79.23842831263167
 20
160.5150318587385
 30
0.0
 10
79.22479478282594
 20
160.5165978067927
 30
0.0
 11
79.22479478282594
 21
160.3082644734595
 31
0.0
 11
79.26465769946901
 21
160.3161939814324
 31
0.0
 11
79.2984520723661
 21
160.3387741837525
 31
0.0
 11
79.3210323768215
 21
160.3725684037909
 31
0.0
 11
79.3289619206613
 21
160.4124311401261
 31
0.0
 11
79.3210323768215
 21
160.4522938764613
 31
0.0
 11
79.2984520723661
 21
160.4860880964997
 31
0.0
 11
79.26465769946901
 21
160.5086682988199
 31
0.0
 11
79.22479478282594
 21
160.5165978067927
 31
0.0
  0
SPLINE
  5
3C9
330
1F
100
AcDbEntity
  8
0
  6
Continuous
 62
     7
100
AcDbSpline
210
0.0
220
0.0
230
1.0
 70
     8
 71
     3
 72
    15
 73
    11
 74
     9
 42
0.000000001
 43
0.0000000001
 44
0.00000001
 40
0.0
 40
0.0
 40
0.0
 40
0.0
 40
0.0406439146784395
 40
0.0812878496477228
 40
0.1219317505248985
 40
0.1625755837392114
 40
0.2032193560599901
 40
0.2438631099337941
 40
0.2845068978997485
 40
0.3251507516847296
 40
0.3251507516847296
 40
0.3251507516847296
 40
0.3251507516847296
 10
79.17275748599559
 20
160.6102490399955
 30
0.0
 10
79.18535025107428
 20
160.6047949145583
 30
0.0
 10
79.21053579144787
 20
160.5938866730656
 30
0.0
 10
79.25260687795068
 20
160.5974317255505
 30
0.0
 10
79.28987749398009
 20
160.6156861536479
 30
0.0
 10
79.31738235179367
 20
160.6470947578985
 30
0.0
 10
79.33079017695326
 20
160.6866326414973
 30
0.0
 10
79.32792128123026
 20
160.7280341364383
 30
0.0
 10
79.30991663782595
 20
160.7662227173186
 30
0.0
 10
79.28786027450197
 20
160.7825571696146
 30
0.0
 10
79.27683207965617
 20
160.7907243976436
 30
0.0
 11
79.17275748599559
 21
160.6102490399955
 31
0.0
 11
79.21125125139531
 21
160.5972045670346
 31
0.0
 11
79.25180682059374
 21
160.5998832851765
 31
0.0
 11
79.28824990015035
 21
160.6178785293185
 31
0.0
 11
79.31503286981479
 21
160.6484496573643
 31
0.0
 11
79.3280774017787
 21
160.686943248649
 31
0.0
 11
79.32539867152036
 21
160.7274986344066
 31
0.0
 11
79.3074033459819
 21
160.7639415491239
 31
0.0
 11
79.27683207965617
 21
160.7907243976436
 31
0.0
  0
SPLINE
  5
3CA
330
1F
100
AcDbEntity
  8
0
  6
Continuous
 62
     7
100
AcDbSpline
210
0.0
220
0.0
230
1.0
 70
     8
 71
     3
 72
    15
 73
    11
 74
     9
 42
0.000000001
 43
0.0000000001
 44
0.00000001
 40
0.0
 40
0.0
 40
0.0
 40
0.0
 40
0.040643853784981
 40
0.0812876417509354
 40
0.1219313956247971
 40
0.1625751679455804
 40
0.2032190011598719
 40
0.2438629020370727
 40
0.2845068370063542
 40
0.3251507516848119
 40
0.3251507516848119
 40
0.3251507516848119
 40
0.3251507516848119
 10
79.27683207965617
 20
160.0341378826086
 30
0.0
 10
79.28786027450194
 20
160.0423051106376
 30
0.0
 10
79.30991663782595
 20
160.0586395629336
 30
0.0
 10
79.32792128123026
 20
160.096828143814
 30
0.0
 10
79.33079017695327
 20
160.1382296387549
 30
0.0
 10
79.31738235179367
 20
160.1777675223538
 30
0.0
 10
79.2898774939801
 20
160.2091761266042
 30
0.0
 10
79.25260687795065
 20
160.2274305547019
 30
0.0
 10
79.21053579144791
 20
160.2309756071866
 30
0.0
 10
79.18535025107427
 20
160.2200673656939
 30
0.0
 10
79.17275748599559
 20
160.2146132402567
 30
0.0
 11
79.27683207965617
 21
160.0341378826086
 31
0.0
 11
79.3074033459819
 21
160.0609207311283
 31
0.0
 11
79.32539867152036
 21
160.0973636458456
 31
0.0
 11
79.32807740177871
 21
160.1379190316032
 31
0.0
 11
79.31503286981479
 21
160.1764126228879
 31
0.0
 11
79.28824990015035
 21
160.2069837509337
 31
0.0
 11
79.25180682059374
 21
160.2249789950758
 31
0.0
 11
79.21125125139531
 21
160.2276577132176
 31
0.0
 11
79.17275748599559
 21
160.2146132402567
 31
0.0
  0
SPLINE
  5
3CB
330
1F
100
AcDbEntity
  8
0
  6
Continuous
 62
     7
100
AcDbSpline
210
0.0
220
0.0
230
1.0
 70
     8
 71
     3
 72
    15
 73
    11
 74
     9
 42
0.000000001
 43
0.0000000001
 44
0.00000001
 40
0.0
 40
0.0
 40
0.0
 40
0.0
 40
0.040643756772146
 40
0.0812875654420594
 40
0.12193144561538
 40
0.1625753758424805
 40
0.2032193060695197
 40
0.2438631862428088
 40
0.2845069949127222
 40
0.3251507516848682
 40
0.3251507516848682
 40
0.3251507516848682
 40
0.3251507516848682
 10
78.07895626663628
 20
159.5236811169883
 30
0.0
 10
78.08052222507105
 20
159.5100476430949
 30
0.0
 10
78.08365415638914
 20
159.4827806805425
 30
0.0
 10
78.10774207648008
 20
159.4481063554316
 30
0.0
 10
78.14217439650328
 20
159.4249387730996
 30
0.0
 10
78.18312340447171
 20
159.4168023022625
 30
0.0
 10
78.22407241244022
 20
159.4249387730995
 30
0.0
 10
78.25850473246335
 20
159.4481063554316
 30
0.0
 10
78.28259265255423
 20
159.4827806805425
 30
0.0
 10
78.28572458387237
 20
159.5100476430949
 30
0.0
 10
78.28729054230712
 20
159.5236811169883
 30
0.0
 11
78.07895626663628
 21
159.5236811169883
 31
0.0
 11
78.08688581047608
 21
159.4838183806531
 31
0.0
 11
78.10946611493148
 21
159.4500241606146
 31
0.0
 11
78.14326048782858
 21
159.4274439582944
 31
0.0
 11
78.18312340447176
 21
159.4195144503215
 31
0.0
 11
78.22298632111487
 21
159.4274439582944
 31
0.0
 11
78.25678069401192
 21
159.4500241606146
 31
0.0
 11
78.27936099846733
 21
159.4838183806531
 31
0.0
 11
78.28729054230712
 21
159.5236811169883
 31
0.0
  0
DIMENSION
  5
3D7
330
1F
100
AcDbEntity
  8
1
100
AcDbDimension
  2
*D3
 10
165.2164546856576
 20
148.662431140126
 30
0.0
 11
161.7164546856576
 21
166.6624311401261
 31
0.0
 70
    32
  1
<>
 71
     5
 42
-1.0
 53
90.0
  3
ME10_DIM_10
100
AcDbAlignedDimension
 13
141.0164546856573
 23
184.6624311401261
 33
0.0
 14
150.2164546856576
 24
148.662431140126
 34
0.0
 50
90.0
100
AcDbRotatedDimension
  0
DIMENSION
  5
3E2
330
1F
100
AcDbEntity
  8
1
100
AcDbDimension
  2
*D4
 10
118.2164546856573
 20
133.6624311401261
 30
0.0
 11
133.2164546856575
 21
137.1624311401261
 31
0.0
 70
    32
  1
<>
 71
     5
 42
-1.0
 53
0.00013888888889
  3
ME10_DIM_11
100
AcDbAlignedDimension
 13
148.2164546856577
 23
148.662431140126
 33
0.0
 14
118.2164546856573
 24
148.6624311401261
 34
0.0
100
AcDbRotatedDimension
  0
DIMENSION
  5
3ED
330
1F
100
AcDbEntity
  8
1
100
AcDbDimension
  2
*D5
 10
70.41645485312972
 20
133.6624311401261
 30
0.0
 11
77.76645485312974
 21
137.3124311401261
 31
0.0
 70
    32
  1
<>
 71
     5
 42
-1.0
 53
0.00013888888889
  3
ME10_DIM_12
100
AcDbAlignedDimension
 13
85.11645485312977
 23
148.6624311401261
 33
0.0
 14
70.41645485312972
 24
148.6624311401261
 34
0.0
100
AcDbRotatedDimension
  0
ENDSEC
  0
SECTION
  2
OBJECTS
  0
DICTIONARY
  5
C
330
0
100
AcDbDictionary
281
     1
  3
ACAD_GROUP
350
D
  3
ACAD_LAYOUT
350
1A
  3
ACAD_MATERIAL
350
3B
  3
ACAD_MLEADERSTYLE
350
3F0
  3
ACAD_MLINESTYLE
350
17
  3
ACAD_PLOTSETTINGS
350
19
  3
ACAD_PLOTSTYLENAME
350
E
  3
ACAD_VISUALSTYLE
350
2A
  3
AcDbVariableDictionary
350
3EE
  0
DICTIONARY
  5
D
102
{ACAD_REACTORS
330
C
102
}
330
C
100
AcDbDictionary
281
     1
  0
DICTIONARY
  5
1A
102
{ACAD_REACTORS
330
C
102
}
330
C
100
AcDbDictionary
281
     1
  3
Layout1
350
1E
  3
Layout2
350
26
  3
Model
350
22
  0
DICTIONARY
  5
3B
102
{ACAD_REACTORS
330
C
102
}
330
C
100
AcDbDictionary
281
     1
  3
ByBlock
350
3D
  3
ByLayer
350
3C
  3
Global
350
3E
  0
DICTIONARY
  5
3F0
102
{ACAD_REACTORS
330
C
102
}
330
C
100
AcDbDictionary
281
     1
  0
DICTIONARY
  5
17
102
{ACAD_REACTORS
330
C
102
}
330
C
100
AcDbDictionary
281
     1
  3
Standard
350
18
  0
DICTIONARY
  5
19
102
{ACAD_REACTORS
330
C
102
}
330
C
100
AcDbDictionary
281
     1
  0
ACDBDICTIONARYWDFLT
  5
E
102
{ACAD_REACTORS
330
C
102
}
330
C
100
AcDbDictionary
281
     1
  3
Normal
350
F
100
AcDbDictionaryWithDefault
340
F
  0
DICTIONARY
  5
2A
102
{ACAD_REACTORS
330
C
102
}
330
C
100
AcDbDictionary
281
     1
  3
2dWireframe
350
2F
  3
3D Hidden
350
31
  3
3dWireframe
350
30
  3
Basic
350
32
  3
Brighten
350
36
  3
ColorChange
350
3A
  3
Conceptual
350
34
  3
Dim
350
35
  3
Facepattern
350
39
  3
Flat
350
2B
  3
FlatWithEdges
350
2C
  3
Gouraud
350
2D
  3
GouraudWithEdges
350
2E
  3
Linepattern
350
38
  3
Realistic
350
33
  3
Thicken
350
37
  0
DICTIONARY
  5
3EE
102
{ACAD_REACTORS
330
C
102
}
330
C
100
AcDbDictionary
281
     1
  3
DIMASSOC
350
3F1
  3
HIDETEXT
350
3F2
  0
LAYOUT
  5
1E
102
{ACAD_REACTORS
330
1A
102
}
330
1A
100
AcDbPlotSettings
  1

  2
none_device
  4

  6

 40
0.0
 41
0.0
 42
0.0
 43
0.0
 44
0.0
 45
0.0
 46
0.0
 47
0.0
 48
0.0
 49
0.0
140
0.0
141
0.0
142
1.0
143
1.0
 70
   688
 72
     0
 73
     0
 74
     5
  7

 75
    16
147
1.0
148
0.0
149
0.0
100
AcDbLayout
  1
Layout1
 70
     1
 71
     1
 10
0.0
 20
0.0
 11
12.0
 21
9.0
 12
0.0
 22
0.0
 32
0.0
 14
1.00000000000000E+20
 24
1.00000000000000E+20
 34
1.00000000000000E+20
 15
-1.00000000000000E+20
 25
-1.00000000000000E+20
 35
-1.00000000000000E+20
146
0.0
 13
0.0
 23
0.0
 33
0.0
 16
1.0
 26
0.0
 36
0.0
 17
0.0
 27
1.0
 37
0.0
 76
     0
330
1B
  0
LAYOUT
  5
26
102
{ACAD_REACTORS
330
1A
102
}
330
1A
100
AcDbPlotSettings
  1

  2
none_device
  4

  6

 40
0.0
 41
0.0
 42
0.0
 43
0.0
 44
0.0
 45
0.0
 46
0.0
 47
0.0
 48
0.0
 49
0.0
140
0.0
141
0.0
142
1.0
143
1.0
 70
   688
 72
     0
 73
     0
 74
     5
  7

 75
    16
147
1.0
148
0.0
149
0.0
100
AcDbLayout
  1
Layout2
 70
     1
 71
     2
 10
0.0
 20
0.0
 11
0.0
 21
0.0
 12
0.0
 22
0.0
 32
0.0
 14
0.0
 24
0.0
 34
0.0
 15
0.0
 25
0.0
 35
0.0
146
0.0
 13
0.0
 23
0.0
 33
0.0
 16
1.0
 26
0.0
 36
0.0
 17
0.0
 27
1.0
 37
0.0
 76
     0
330
23
  0
LAYOUT
  5
22
102
{ACAD_REACTORS
330
1A
102
}
330
1A
100
AcDbPlotSettings
  1

  2
none_device
  4

  6

 40
0.0
 41
0.0
 42
0.0
 43
0.0
 44
0.0
 45
0.0
 46
0.0
 47
0.0
 48
0.0
 49
0.0
140
0.0
141
0.0
142
1.0
143
1.0
 70
  1712
 72
     0
 73
     0
 74
     0
  7

 75
     0
147
1.0
148
0.0
149
0.0
100
AcDbLayout
  1
Model
 70
     1
 71
     0
 10
0.0
 20
0.0
 11
12.0
 21
9.0
 12
0.0
 22
0.0
 32
0.0
 14
0.0
 24
0.0
 34
0.0
 15
210.0000000000001
 25
297.0000000000001
 35
0.0
146
0.0
 13
0.0
 23
0.0
 33
0.0
 16
1.0
 26
0.0
 36
0.0
 17
0.0
 27
1.0
 37
0.0
 76
     0
330
1F
331
29
  0
MATERIAL
  5
3D
102
{ACAD_REACTORS
330
3B
102
}
102
{ACAD_XDICTIONARY
360
415
102
}
330
3B
100
AcDbMaterial
  1
ByBlock
  0
MATERIAL
  5
3C
102
{ACAD_REACTORS
330
3B
102
}
102
{ACAD_XDICTIONARY
360
413
102
}
330
3B
100
AcDbMaterial
  1
ByLayer
  0
MATERIAL
  5
3E
102
{ACAD_REACTORS
330
3B
102
}
102
{ACAD_XDICTIONARY
360
417
102
}
330
3B
100
AcDbMaterial
  1
Global
  0
MLINESTYLE
  5
18
102
{ACAD_REACTORS
330
17
102
}
330
17
100
AcDbMlineStyle
  2
Standard
 70
     0
  3

 62
   256
 51
90.0
 52
90.0
 71
     2
 49
0.5
 62
   256
  6
BYLAYER
 49
-0.5
 62
   256
  6
BYLAYER
  0
ACDBPLACEHOLDER
  5
F
102
{ACAD_REACTORS
330
E
102
}
330
E
  0
VISUALSTYLE
  5
2F
102
{ACAD_REACTORS
330
2A
102
}
102
{ACAD_XDICTIONARY
360
3FB
102
}
330
2A
100
AcDbVisualStyle
  2
2dWireframe
 70
     4
 71
     0
 72
     2
 73
     0
 90
        0
 40
-0.6
 41
-30.0
 62
     5
 63
     7
 74
     1
 91
        4
 64
     7
 65
   257
 75
     1
175
     1
 42
1.0
 92
        0
 66
   257
 43
1.0
 76
     1
 77
     6
 78
     2
 67
     7
 79
     5
170
     0
171
     0
290
     0
174
     0
 93
        1
 44
0.0
173
     0
291
     0
 45
0.0
1001
ACAD
1000
AcDbSavedByObjectVersion
1070
     0
  0
VISUALSTYLE
  5
31
102
{ACAD_REACTORS
330
2A
102
}
102
{ACAD_XDICTIONARY
360
3FF
102
}
330
2A
100
AcDbVisualStyle
  2
3D Hidden
 70
     6
 71
     1
 72
     2
 73
     2
 90
        0
 40
-0.6
 41
-30.0
 62
     5
 63
     7
 74
     2
 91
        2
 64
     7
 65
   257
 75
     2
175
     1
 42
40.0
 92
        0
 66
   257
 43
1.0
 76
     1
 77
     6
 78
     2
 67
     7
 79
     3
170
     0
171
     0
290
     0
174
     0
 93
        1
 44
0.0
173
     0
291
     0
 45
0.0
1001
ACAD
1000
AcDbSavedByObjectVersion
1070
     0
  0
VISUALSTYLE
  5
30
102
{ACAD_REACTORS
330
2A
102
}
102
{ACAD_XDICTIONARY
360
3FD
102
}
330
2A
100
AcDbVisualStyle
  2
3dWireframe
 70
     5
 71
     0
 72
     2
 73
     0
 90
        0
 40
-0.6
 41
-30.0
 62
     5
 63
     7
 74
     1
 91
        4
 64
     7
 65
   257
 75
     1
175
     1
 42
1.0
 92
        0
 66
   257
 43
1.0
 76
     1
 77
     6
 78
     2
 67
     7
 79
     5
170
     0
171
     0
290
     0
174
     0
 93
        1
 44
0.0
173
     0
291
     0
 45
0.0
1001
ACAD
1000
AcDbSavedByObjectVersion
1070
     0
  0
VISUALSTYLE
  5
32
102
{ACAD_REACTORS
330
2A
102
}
102
{ACAD_XDICTIONARY
360
401
102
}
330
2A
100
AcDbVisualStyle
  2
Basic
 70
     7
 71
     1
 72
     0
 73
     1
 90
        0
 40
-0.6
 41
-30.0
 62
     5
 63
     7
 74
     0
 91
        4
 64
     7
 65
   257
 75
     1
175
     1
 42
1.0
 92
        8
 66
     7
 43
1.0
 76
     1
 77
     6
 78
     2
 67
     7
 79
     5
170
     0
171
     0
290
     0
174
     0
 93
        1
 44
0.0
173
     0
291
     1
 45
0.0
1001
ACAD
1000
AcDbSavedByObjectVersion
1070
     0
  0
VISUALSTYLE
  5
36
102
{ACAD_REACTORS
330
2A
102
}
102
{ACAD_XDICTIONARY
360
409
102
}
330
2A
100
AcDbVisualStyle
  2
Brighten
 70
    12
 71
     2
 72
     2
 73
     0
 90
        0
 40
-0.6
 41
-30.0
 62
     5
 63
     7
 74
     1
 91
        4
 64
     7
 65
   257
 75
     1
175
     1
 42
1.0
 92
        8
 66
     7
 43
1.0
 76
     1
 77
     6
 78
     2
 67
     7
 79
     5
170
     0
171
     0
290
     0
174
     0
 93
        1
 44
50.0
173
     0
291
     1
 45
0.0
1001
ACAD
1000
AcDbSavedByObjectVersion
1070
     0
  0
VISUALSTYLE
  5
3A
102
{ACAD_REACTORS
330
2A
102
}
102
{ACAD_XDICTIONARY
360
411
102
}
330
2A
100
AcDbVisualStyle
  2
ColorChange
 70
    16
 71
     2
 72
     2
 73
     3
 90
        0
 40
-0.6
 41
-30.0
 62
     5
 63
     8
 74
     1
 91
        4
 64
     7
 65
   257
 75
     1
175
     1
 42
1.0
 92
        8
 66
     8
 43
1.0
 76
     1
 77
     6
 78
     2
 67
     7
 79
     5
170
     0
171
     0
290
     0
174
     0
 93
        1
 44
0.0
173
     0
291
     1
 45
0.0
1001
ACAD
1000
AcDbSavedByObjectVersion
1070
     0
  0
VISUALSTYLE
  5
34
102
{ACAD_REACTORS
330
2A
102
}
102
{ACAD_XDICTIONARY
360
405
102
}
330
2A
100
AcDbVisualStyle
  2
Conceptual
 70
     9
 71
     3
 72
     2
 73
     0
 90
        0
 40
-0.6
 41
-30.0
 62
     5
 63
     7
 74
     2
 91
        2
 64
     7
 65
   257
 75
     1
175
     1
 42
40.0
 92
        8
 66
     7
 43
1.0
 76
     1
 77
     6
 78
     2
 67
     7
 79
     3
170
     0
171
     0
290
     0
174
     0
 93
        1
 44
0.0
173
     0
291
     0
 45
0.0
1001
ACAD
1000
AcDbSavedByObjectVersion
1070
     0
  0
VISUALSTYLE
  5
35
102
{ACAD_REACTORS
330
2A
102
}
102
{ACAD_XDICTIONARY
360
407
102
}
330
2A
100
AcDbVisualStyle
  2
Dim
 70
    11
 71
     2
 72
     2
 73
     0
 90
        0
 40
-0.6
 41
-30.0
 62
     5
 63
     7
 74
     1
 91
        4
 64
     7
 65
   257
 75
     1
175
     1
 42
1.0
 92
        8
 66
     7
 43
1.0
 76
     1
 77
     6
 78
     2
 67
     7
 79
     5
170
     0
171
     0
290
     0
174
     0
 93
        1
 44
-50.0
173
     0
291
     1
 45
0.0
1001
ACAD
1000
AcDbSavedByObjectVersion
1070
     0
  0
VISUALSTYLE
  5
39
102
{ACAD_REACTORS
330
2A
102
}
102
{ACAD_XDICTIONARY
360
40F
102
}
330
2A
100
AcDbVisualStyle
  2
Facepattern
 70
    15
 71
     2
 72
     2
 73
     0
 90
        0
 40
-0.6
 41
-30.0
 62
     5
 63
     7
 74
     1
 91
        4
 64
     7
 65
   257
 75
     1
175
     1
 42
1.0
 92
        8
 66
     7
 43
1.0
 76
     1
 77
     6
 78
     2
 67
     7
 79
     5
170
     0
171
     0
290
     0
174
     0
 93
        1
 44
0.0
173
     0
291
     1
 45
0.0
1001
ACAD
1000
AcDbSavedByObjectVersion
1070
     0
  0
VISUALSTYLE
  5
2B
102
{ACAD_REACTORS
330
2A
102
}
102
{ACAD_XDICTIONARY
360
3F3
102
}
330
2A
100
AcDbVisualStyle
  2
Flat
 70
     0
 71
     2
 72
     1
 73
     1
 90
        2
 40
-0.6
 41
30.0
 62
     5
 63
     7
 74
     0
 91
        4
 64
     7
 65
   257
 75
     1
175
     1
 42
1.0
 92
        8
 66
     7
 43
1.0
 76
     1
 77
     6
 78
     2
 67
     7
 79
     5
170
     0
171
     0
290
     0
174
     0
 93
       13
 44
0.0
173
     0
291
     1
 45
0.0
1001
ACAD
1000
AcDbSavedByObjectVersion
1070
     0
  0
VISUALSTYLE
  5
2C
102
{ACAD_REACTORS
330
2A
102
}
102
{ACAD_XDICTIONARY
360
3F5
102
}
330
2A
100
AcDbVisualStyle
  2
FlatWithEdges
 70
     1
 71
     2
 72
     1
 73
     1
 90
        2
 40
-0.6
 41
30.0
 62
     5
 63
     7
 74
     1
 91
        4
 64
     7
 65
   257
 75
     1
175
     1
 42
1.0
 92
        0
 66
   257
 43
1.0
 76
     1
 77
     6
 78
     2
 67
     7
 79
     5
170
     0
171
     0
290
     0
174
     0
 93
       13
 44
0.0
173
     0
291
     1
 45
0.0
1001
ACAD
1000
AcDbSavedByObjectVersion
1070
     0
  0
VISUALSTYLE
  5
2D
102
{ACAD_REACTORS
330
2A
102
}
102
{ACAD_XDICTIONARY
360
3F7
102
}
330
2A
100
AcDbVisualStyle
  2
Gouraud
 70
     2
 71
     2
 72
     2
 73
     1
 90
        2
 40
-0.6
 41
30.0
 62
     5
 63
     7
 74
     0
 91
        4
 64
     7
 65
   257
 75
     1
175
     1
 42
1.0
 92
        0
 66
     7
 43
1.0
 76
     1
 77
     6
 78
     2
 67
     7
 79
     5
170
     0
171
     0
290
     0
174
     0
 93
       13
 44
0.0
173
     0
291
     1
 45
0.0
1001
ACAD
1000
AcDbSavedByObjectVersion
1070
     0
  0
VISUALSTYLE
  5
2E
102
{ACAD_REACTORS
330
2A
102
}
102
{ACAD_XDICTIONARY
360
3F9
102
}
330
2A
100
AcDbVisualStyle
  2
GouraudWithEdges
 70
     3
 71
     2
 72
     2
 73
     1
 90
        2
 40
-0.6
 41
30.0
 62
     5
 63
     7
 74
     1
 91
        4
 64
     7
 65
   257
 75
     1
175
     1
 42
1.0
 92
        0
 66
   257
 43
1.0
 76
     1
 77
     6
 78
     2
 67
     7
 79
     5
170
     0
171
     0
290
     0
174
     0
 93
       13
 44
0.0
173
     0
291
     1
 45
0.0
1001
ACAD
1000
AcDbSavedByObjectVersion
1070
     0
  0
VISUALSTYLE
  5
38
102
{ACAD_REACTORS
330
2A
102
}
102
{ACAD_XDICTIONARY
360
40D
102
}
330
2A
100
AcDbVisualStyle
  2
Linepattern
 70
    14
 71
     2
 72
     2
 73
     0
 90
        0
 40
-0.6
 41
-30.0
 62
     5
 63
     7
 74
     1
 91
        4
 64
     7
 65
   257
 75
     7
175
     7
 42
1.0
 92
        8
 66
     7
 43
1.0
 76
     1
 77
     6
 78
     2
 67
     7
 79
     5
170
     0
171
     0
290
     0
174
     0
 93
        1
 44
0.0
173
     0
291
     1
 45
0.0
1001
ACAD
1000
AcDbSavedByObjectVersion
1070
     0
  0
VISUALSTYLE
  5
33
102
{ACAD_REACTORS
330
2A
102
}
102
{ACAD_XDICTIONARY
360
403
102
}
330
2A
100
AcDbVisualStyle
  2
Realistic
 70
     8
 71
     2
 72
     2
 73
     0
 90
        0
 40
-0.6
 41
-30.0
 62
     5
 63
     7
 74
     1
 91
        0
 64
     7
 65
   257
 75
     1
175
     1
 42
1.0
 92
        8
 66
     8
 43
1.0
 76
     1
 77
     6
 78
     2
 67
     7
 79
     5
170
     0
171
     0
290
     0
174
     0
 93
       13
 44
0.0
173
     0
291
     0
 45
0.0
1001
ACAD
1000
AcDbSavedByObjectVersion
1070
     0
  0
VISUALSTYLE
  5
37
102
{ACAD_REACTORS
330
2A
102
}
102
{ACAD_XDICTIONARY
360
40B
102
}
330
2A
100
AcDbVisualStyle
  2
Thicken
 70
    13
 71
     2
 72
     2
 73
     0
 90
        0
 40
-0.6
 41
-30.0
 62
     5
 63
     7
 74
     1
 91
        4
 64
     7
 65
   257
 75
     1
175
     1
 42
1.0
 92
       12
 66
     7
 43
1.0
 76
     1
 77
     6
 78
     2
 67
     7
 79
     5
170
     0
171
     0
290
     0
174
     0
 93
        1
 44
0.0
173
     0
291
     1
 45
0.0
1001
ACAD
1000
AcDbSavedByObjectVersion
1070
     0
  0
DICTIONARYVAR
  5
3F1
102
{ACAD_REACTORS
330
3EE
102
}
330
3EE
100
DictionaryVariables
280
     0
  1
2
  0
DICTIONARYVAR
  5
3F2
102
{ACAD_REACTORS
330
3EE
102
}
330
3EE
100
DictionaryVariables
280
     0
  1
1
  0
DICTIONARY
  5
415
330
3D
100
AcDbDictionary
280
     1
281
     1
  3
ACAD_XREC_ROUNDTRIP
360
416
  0
DICTIONARY
  5
413
330
3C
100
AcDbDictionary
280
     1
281
     1
  3
ACAD_XREC_ROUNDTRIP
360
414
  0
DICTIONARY
  5
417
330
3E
100
AcDbDictionary
280
     1
281
     1
  3
ACAD_XREC_ROUNDTRIP
360
418
  0
DICTIONARY
  5
3FB
330
2F
100
AcDbDictionary
280
     1
281
     1
  3
ACAD_XREC_ROUNDTRIP
360
3FC
  0
DICTIONARY
  5
3FF
330
31
100
AcDbDictionary
280
     1
281
     1
  3
ACAD_XREC_ROUNDTRIP
360
400
  0
DICTIONARY
  5
3FD
330
30
100
AcDbDictionary
280
     1
281
     1
  3
ACAD_XREC_ROUNDTRIP
360
3FE
  0
DICTIONARY
  5
401
330
32
100
AcDbDictionary
280
     1
281
     1
  3
ACAD_XREC_ROUNDTRIP
360
402
  0
DICTIONARY
  5
409
330
36
100
AcDbDictionary
280
     1
281
     1
  3
ACAD_XREC_ROUNDTRIP
360
40A
  0
DICTIONARY
  5
411
330
3A
100
AcDbDictionary
280
     1
281
     1
  3
ACAD_XREC_ROUNDTRIP
360
412
  0
DICTIONARY
  5
405
330
34
100
AcDbDictionary
280
     1
281
     1
  3
ACAD_XREC_ROUNDTRIP
360
406
  0
DICTIONARY
  5
407
330
35
100
AcDbDictionary
280
     1
281
     1
  3
ACAD_XREC_ROUNDTRIP
360
408
  0
DICTIONARY
  5
40F
330
39
100
AcDbDictionary
280
     1
281
     1
  3
ACAD_XREC_ROUNDTRIP
360
410
  0
DICTIONARY
  5
3F3
330
2B
100
AcDbDictionary
280
     1
281
     1
  3
ACAD_XREC_ROUNDTRIP
360
3F4
  0
DICTIONARY
  5
3F5
330
2C
100
AcDbDictionary
280
     1
281
     1
  3
ACAD_XREC_ROUNDTRIP
360
3F6
  0
DICTIONARY
  5
3F7
330
2D
100
AcDbDictionary
280
     1
281
     1
  3
ACAD_XREC_ROUNDTRIP
360
3F8
  0
DICTIONARY
  5
3F9
330
2E
100
AcDbDictionary
280
     1
281
     1
  3
ACAD_XREC_ROUNDTRIP
360
3FA
  0
DICTIONARY
  5
40D
330
38
100
AcDbDictionary
280
     1
281
     1
  3
ACAD_XREC_ROUNDTRIP
360
40E
  0
DICTIONARY
  5
403
330
33
100
AcDbDictionary
280
     1
281
     1
  3
ACAD_XREC_ROUNDTRIP
360
404
  0
DICTIONARY
  5
40B
330
37
100
AcDbDictionary
280
     1
281
     1
  3
ACAD_XREC_ROUNDTRIP
360
40C
  0
XRECORD
  5
416
102
{ACAD_REACTORS
330
415
102
}
330
415
100
AcDbXrecord
280
     1
102
MATERIAL
148
0.0
149
0.0
149
0.0
 93
        0
 94
      127
282
     0
 72
     1
 77
     1
171
     1
175
     1
179
     1
273
     0
  0
XRECORD
  5
414
102
{ACAD_REACTORS
330
413
102
}
330
413
100
AcDbXrecord
280
     1
102
MATERIAL
148
0.0
149
0.0
149
0.0
 93
        0
 94
      127
282
     0
 72
     1
 77
     1
171
     1
175
     1
179
     1
273
     0
  0
XRECORD
  5
418
102
{ACAD_REACTORS
330
417
102
}
330
417
100
AcDbXrecord
280
     1
102
MATERIAL
148
0.0
149
0.0
149
0.0
 93
        0
 94
      127
282
     0
 72
     1
 77
     1
171
     1
175
     1
179
     1
273
     0
  0
XRECORD
  5
3FC
102
{ACAD_REACTORS
330
3FB
102
}
330
3FB
100
AcDbXrecord
280
     1
102
RTVSPropertyOp0
 70
     1
102
RTVSPropertyOp1
 70
     1
102
RTVSPropertyOp2
 70
     1
102
RTVSPropertyOp3
 70
     1
102
RTVSPropertyOp4
 70
     1
102
RTVSPropertyOp5
 70
     1
102
RTVSPropertyOp6
 70
     1
102
RTVSPropertyOp7
 70
     1
102
RTVSPropertyOp8
 70
     1
102
RTVSPropertyOp9
 70
     1
102
RTVSPropertyOp10
 70
     1
102
RTVSPropertyOp11
 70
     1
102
RTVSPropertyOp12
 70
     1
102
RTVSPropertyOp13
 70
     1
102
RTVSPropertyOp14
 70
     1
102
RTVSPropertyOp15
 70
     1
102
RTVSPropertyOp16
 70
     1
102
RTVSPropertyOp17
 70
     1
102
RTVSPropertyOp18
 70
     1
102
RTVSPropertyOp19
 70
     1
102
RTVSPropertyOp20
 70
     1
102
RTVSPropertyOp21
 70
     1
102
RTVSPropertyOp22
 70
     1
102
RTVSPropertyOp23
 70
     1
102
RTVSPropertyOp24
 70
     1
102
RTVSPropertyOp25
 70
     1
102
RTVSPropertyOp26
 70
     1
102
RTVSPropertyOp27
 70
     1
102
RTVSPropertyOp28
 70
     1
102
RTVSPropertyOp29
 70
     1
102
RTVSPropertyOp30
 70
     1
102
RTVSPropertyOp31
 70
     1
102
RTVSPropertyOp32
 70
     1
  0
XRECORD
  5
400
102
{ACAD_REACTORS
330
3FF
102
}
330
3FF
100
AcDbXrecord
280
     1
102
RTVSPropertyOp0
 70
     1
102
RTVSPropertyOp1
 70
     1
102
RTVSPropertyOp2
 70
     1
102
RTVSPropertyOp3
 70
     1
102
RTVSPropertyOp4
 70
     1
102
RTVSPropertyOp5
 70
     1
102
RTVSPropertyOp6
 70
     1
102
RTVSPropertyOp7
 70
     1
102
RTVSPropertyOp8
 70
     1
102
RTVSPropertyOp9
 70
     1
102
RTVSPropertyOp10
 70
     1
102
RTVSPropertyOp11
 70
     1
102
RTVSPropertyOp12
 70
     1
102
RTVSPropertyOp13
 70
     1
102
RTVSPropertyOp14
 70
     1
102
RTVSPropertyOp15
 70
     1
102
RTVSPropertyOp16
 70
     1
102
RTVSPropertyOp17
 70
     1
102
RTVSPropertyOp18
 70
     1
102
RTVSPropertyOp19
 70
     1
102
RTVSPropertyOp20
 70
     1
102
RTVSPropertyOp21
 70
     1
102
RTVSPropertyOp22
 70
     1
102
RTVSPropertyOp23
 70
     1
102
RTVSPropertyOp24
 70
     1
102
RTVSPropertyOp25
 70
     1
102
RTVSPropertyOp26
 70
     1
102
RTVSPropertyOp27
 70
     1
102
RTVSPropertyOp28
 70
     1
102
RTVSPropertyOp29
 70
     1
102
RTVSPropertyOp30
 70
     1
102
RTVSPropertyOp31
 70
     1
102
RTVSPropertyOp32
 70
     1
  0
XRECORD
  5
3FE
102
{ACAD_REACTORS
330
3FD
102
}
330
3FD
100
AcDbXrecord
280
     1
102
RTVSPropertyOp0
 70
     1
102
RTVSPropertyOp1
 70
     1
102
RTVSPropertyOp2
 70
     1
102
RTVSPropertyOp3
 70
     1
102
RTVSPropertyOp4
 70
     1
102
RTVSPropertyOp5
 70
     1
102
RTVSPropertyOp6
 70
     1
102
RTVSPropertyOp7
 70
     1
102
RTVSPropertyOp8
 70
     1
102
RTVSPropertyOp9
 70
     1
102
RTVSPropertyOp10
 70
     1
102
RTVSPropertyOp11
 70
     1
102
RTVSPropertyOp12
 70
     1
102
RTVSPropertyOp13
 70
     1
102
RTVSPropertyOp14
 70
     1
102
RTVSPropertyOp15
 70
     1
102
RTVSPropertyOp16
 70
     1
102
RTVSPropertyOp17
 70
     1
102
RTVSPropertyOp18
 70
     1
102
RTVSPropertyOp19
 70
     1
102
RTVSPropertyOp20
 70
     1
102
RTVSPropertyOp21
 70
     1
102
RTVSPropertyOp22
 70
     1
102
RTVSPropertyOp23
 70
     1
102
RTVSPropertyOp24
 70
     1
102
RTVSPropertyOp25
 70
     1
102
RTVSPropertyOp26
 70
     1
102
RTVSPropertyOp27
 70
     1
102
RTVSPropertyOp28
 70
     1
102
RTVSPropertyOp29
 70
     1
102
RTVSPropertyOp30
 70
     1
102
RTVSPropertyOp31
 70
     1
102
RTVSPropertyOp32
 70
     1
  0
XRECORD
  5
402
102
{ACAD_REACTORS
330
401
102
}
330
401
100
AcDbXrecord
280
     1
102
RTVSPropertyOp0
 70
     1
102
RTVSPropertyOp1
 70
     1
102
RTVSPropertyOp2
 70
     1
102
RTVSPropertyOp3
 70
     1
102
RTVSPropertyOp4
 70
     1
102
RTVSPropertyOp5
 70
     1
102
RTVSPropertyOp6
 70
     1
102
RTVSPropertyOp7
 70
     1
102
RTVSPropertyOp8
 70
     1
102
RTVSPropertyOp9
 70
     1
102
RTVSPropertyOp10
 70
     1
102
RTVSPropertyOp11
 70
     1
102
RTVSPropertyOp12
 70
     1
102
RTVSPropertyOp13
 70
     1
102
RTVSPropertyOp14
 70
     1
102
RTVSPropertyOp15
 70
     1
102
RTVSPropertyOp16
 70
     1
102
RTVSPropertyOp17
 70
     1
102
RTVSPropertyOp18
 70
     1
102
RTVSPropertyOp19
 70
     1
102
RTVSPropertyOp20
 70
     1
102
RTVSPropertyOp21
 70
     1
102
RTVSPropertyOp22
 70
     1
102
RTVSPropertyOp23
 70
     1
102
RTVSPropertyOp24
 70
     1
102
RTVSPropertyOp25
 70
     1
102
RTVSPropertyOp26
 70
     1
102
RTVSPropertyOp27
 70
     1
102
RTVSPropertyOp28
 70
     1
102
RTVSPropertyOp29
 70
     1
102
RTVSPropertyOp30
 70
     1
102
RTVSPropertyOp31
 70
     1
102
RTVSPropertyOp32
 70
     1
  0
XRECORD
  5
40A
102
{ACAD_REACTORS
330
409
102
}
330
409
100
AcDbXrecord
280
     1
102
RTVSPropertyOp0
 70
     1
102
RTVSPropertyOp1
 70
     1
102
RTVSPropertyOp2
 70
     1
102
RTVSPropertyOp3
 70
     1
102
RTVSPropertyOp4
 70
     1
102
RTVSPropertyOp5
 70
     1
102
RTVSPropertyOp6
 70
     1
102
RTVSPropertyOp7
 70
     1
102
RTVSPropertyOp8
 70
     1
102
RTVSPropertyOp9
 70
     1
102
RTVSPropertyOp10
 70
     1
102
RTVSPropertyOp11
 70
     1
102
RTVSPropertyOp12
 70
     1
102
RTVSPropertyOp13
 70
     1
102
RTVSPropertyOp14
 70
     1
102
RTVSPropertyOp15
 70
     1
102
RTVSPropertyOp16
 70
     1
102
RTVSPropertyOp17
 70
     1
102
RTVSPropertyOp18
 70
     1
102
RTVSPropertyOp19
 70
     1
102
RTVSPropertyOp20
 70
     1
102
RTVSPropertyOp21
 70
     1
102
RTVSPropertyOp22
 70
     1
102
RTVSPropertyOp23
 70
     1
102
RTVSPropertyOp24
 70
     1
102
RTVSPropertyOp25
 70
     1
102
RTVSPropertyOp26
 70
     1
102
RTVSPropertyOp27
 70
     1
102
RTVSPropertyOp28
 70
     1
102
RTVSPropertyOp29
 70
     1
102
RTVSPropertyOp30
 70
     1
102
RTVSPropertyOp31
 70
     1
102
RTVSPropertyOp32
 70
     1
  0
XRECORD
  5
412
102
{ACAD_REACTORS
330
411
102
}
330
411
100
AcDbXrecord
280
     1
102
RTVSPropertyOp0
 70
     1
102
RTVSPropertyOp1
 70
     1
102
RTVSPropertyOp2
 70
     1
102
RTVSPropertyOp3
 70
     1
102
RTVSPropertyOp4
 70
     1
102
RTVSPropertyOp5
 70
     1
102
RTVSPropertyOp6
 70
     1
102
RTVSPropertyOp7
 70
     1
102
RTVSPropertyOp8
 70
     1
102
RTVSPropertyOp9
 70
     1
102
RTVSPropertyOp10
 70
     1
102
RTVSPropertyOp11
 70
     1
102
RTVSPropertyOp12
 70
     1
102
RTVSPropertyOp13
 70
     1
102
RTVSPropertyOp14
 70
     1
102
RTVSPropertyOp15
 70
     1
102
RTVSPropertyOp16
 70
     1
102
RTVSPropertyOp17
 70
     1
102
RTVSPropertyOp18
 70
     1
102
RTVSPropertyOp19
 70
     1
102
RTVSPropertyOp20
 70
     1
102
RTVSPropertyOp21
 70
     1
102
RTVSPropertyOp22
 70
     1
102
RTVSPropertyOp23
 70
     1
102
RTVSPropertyOp24
 70
     1
102
RTVSPropertyOp25
 70
     1
102
RTVSPropertyOp26
 70
     1
102
RTVSPropertyOp27
 70
     1
102
RTVSPropertyOp28
 70
     1
102
RTVSPropertyOp29
 70
     1
102
RTVSPropertyOp30
 70
     1
102
RTVSPropertyOp31
 70
     1
102
RTVSPropertyOp32
 70
     1
  0
XRECORD
  5
406
102
{ACAD_REACTORS
330
405
102
}
330
405
100
AcDbXrecord
280
     1
102
RTVSPropertyOp0
 70
     1
102
RTVSPropertyOp1
 70
     1
102
RTVSPropertyOp2
 70
     1
102
RTVSPropertyOp3
 70
     1
102
RTVSPropertyOp4
 70
     1
102
RTVSPropertyOp5
 70
     1
102
RTVSPropertyOp6
 70
     1
102
RTVSPropertyOp7
 70
     1
102
RTVSPropertyOp8
 70
     1
102
RTVSPropertyOp9
 70
     1
102
RTVSPropertyOp10
 70
     1
102
RTVSPropertyOp11
 70
     1
102
RTVSPropertyOp12
 70
     1
102
RTVSPropertyOp13
 70
     1
102
RTVSPropertyOp14
 70
     1
102
RTVSPropertyOp15
 70
     1
102
RTVSPropertyOp16
 70
     1
102
RTVSPropertyOp17
 70
     1
102
RTVSPropertyOp18
 70
     1
102
RTVSPropertyOp19
 70
     1
102
RTVSPropertyOp20
 70
     1
102
RTVSPropertyOp21
 70
     1
102
RTVSPropertyOp22
 70
     1
102
RTVSPropertyOp23
 70
     1
102
RTVSPropertyOp24
 70
     1
102
RTVSPropertyOp25
 70
     1
102
RTVSPropertyOp26
 70
     1
102
RTVSPropertyOp27
 70
     1
102
RTVSPropertyOp28
 70
     1
102
RTVSPropertyOp29
 70
     1
102
RTVSPropertyOp30
 70
     1
102
RTVSPropertyOp31
 70
     1
102
RTVSPropertyOp32
 70
     1
  0
XRECORD
  5
408
102
{ACAD_REACTORS
330
407
102
}
330
407
100
AcDbXrecord
280
     1
102
RTVSPropertyOp0
 70
     1
102
RTVSPropertyOp1
 70
     1
102
RTVSPropertyOp2
 70
     1
102
RTVSPropertyOp3
 70
     1
102
RTVSPropertyOp4
 70
     1
102
RTVSPropertyOp5
 70
     1
102
RTVSPropertyOp6
 70
     1
102
RTVSPropertyOp7
 70
     1
102
RTVSPropertyOp8
 70
     1
102
RTVSPropertyOp9
 70
     1
102
RTVSPropertyOp10
 70
     1
102
RTVSPropertyOp11
 70
     1
102
RTVSPropertyOp12
 70
     1
102
RTVSPropertyOp13
 70
     1
102
RTVSPropertyOp14
 70
     1
102
RTVSPropertyOp15
 70
     1
102
RTVSPropertyOp16
 70
     1
102
RTVSPropertyOp17
 70
     1
102
RTVSPropertyOp18
 70
     1
102
RTVSPropertyOp19
 70
     1
102
RTVSPropertyOp20
 70
     1
102
RTVSPropertyOp21
 70
     1
102
RTVSPropertyOp22
 70
     1
102
RTVSPropertyOp23
 70
     1
102
RTVSPropertyOp24
 70
     1
102
RTVSPropertyOp25
 70
     1
102
RTVSPropertyOp26
 70
     1
102
RTVSPropertyOp27
 70
     1
102
RTVSPropertyOp28
 70
     1
102
RTVSPropertyOp29
 70
     1
102
RTVSPropertyOp30
 70
     1
102
RTVSPropertyOp31
 70
     1
102
RTVSPropertyOp32
 70
     1
  0
XRECORD
  5
410
102
{ACAD_REACTORS
330
40F
102
}
330
40F
100
AcDbXrecord
280
     1
102
RTVSPropertyOp0
 70
     1
102
RTVSPropertyOp1
 70
     1
102
RTVSPropertyOp2
 70
     1
102
RTVSPropertyOp3
 70
     1
102
RTVSPropertyOp4
 70
     1
102
RTVSPropertyOp5
 70
     1
102
RTVSPropertyOp6
 70
     1
102
RTVSPropertyOp7
 70
     1
102
RTVSPropertyOp8
 70
     1
102
RTVSPropertyOp9
 70
     1
102
RTVSPropertyOp10
 70
     1
102
RTVSPropertyOp11
 70
     1
102
RTVSPropertyOp12
 70
     1
102
RTVSPropertyOp13
 70
     1
102
RTVSPropertyOp14
 70
     1
102
RTVSPropertyOp15
 70
     1
102
RTVSPropertyOp16
 70
     1
102
RTVSPropertyOp17
 70
     1
102
RTVSPropertyOp18
 70
     1
102
RTVSPropertyOp19
 70
     1
102
RTVSPropertyOp20
 70
     1
102
RTVSPropertyOp21
 70
     1
102
RTVSPropertyOp22
 70
     1
102
RTVSPropertyOp23
 70
     1
102
RTVSPropertyOp24
 70
     1
102
RTVSPropertyOp25
 70
     1
102
RTVSPropertyOp26
 70
     1
102
RTVSPropertyOp27
 70
     1
102
RTVSPropertyOp28
 70
     1
102
RTVSPropertyOp29
 70
     1
102
RTVSPropertyOp30
 70
     1
102
RTVSPropertyOp31
 70
     1
102
RTVSPropertyOp32
 70
     1
  0
XRECORD
  5
3F4
102
{ACAD_REACTORS
330
3F3
102
}
330
3F3
100
AcDbXrecord
280
     1
102
RTVSPropertyOp0
 70
     1
102
RTVSPropertyOp1
 70
     1
102
RTVSPropertyOp2
 70
     1
102
RTVSPropertyOp3
 70
     1
102
RTVSPropertyOp4
 70
     1
102
RTVSPropertyOp5
 70
     1
102
RTVSPropertyOp6
 70
     1
102
RTVSPropertyOp7
 70
     1
102
RTVSPropertyOp8
 70
     1
102
RTVSPropertyOp9
 70
     1
102
RTVSPropertyOp10
 70
     1
102
RTVSPropertyOp11
 70
     1
102
RTVSPropertyOp12
 70
     1
102
RTVSPropertyOp13
 70
     1
102
RTVSPropertyOp14
 70
     1
102
RTVSPropertyOp15
 70
     1
102
RTVSPropertyOp16
 70
     1
102
RTVSPropertyOp17
 70
     1
102
RTVSPropertyOp18
 70
     1
102
RTVSPropertyOp19
 70
     1
102
RTVSPropertyOp20
 70
     1
102
RTVSPropertyOp21
 70
     1
102
RTVSPropertyOp22
 70
     1
102
RTVSPropertyOp23
 70
     1
102
RTVSPropertyOp24
 70
     1
102
RTVSPropertyOp25
 70
     1
102
RTVSPropertyOp26
 70
     1
102
RTVSPropertyOp27
 70
     1
102
RTVSPropertyOp28
 70
     1
102
RTVSPropertyOp29
 70
     1
102
RTVSPropertyOp30
 70
     1
102
RTVSPropertyOp31
 70
     1
102
RTVSPropertyOp32
 70
     1
  0
XRECORD
  5
3F6
102
{ACAD_REACTORS
330
3F5
102
}
330
3F5
100
AcDbXrecord
280
     1
102
RTVSPropertyOp0
 70
     1
102
RTVSPropertyOp1
 70
     1
102
RTVSPropertyOp2
 70
     1
102
RTVSPropertyOp3
 70
     1
102
RTVSPropertyOp4
 70
     1
102
RTVSPropertyOp5
 70
     1
102
RTVSPropertyOp6
 70
     1
102
RTVSPropertyOp7
 70
     1
102
RTVSPropertyOp8
 70
     1
102
RTVSPropertyOp9
 70
     1
102
RTVSPropertyOp10
 70
     1
102
RTVSPropertyOp11
 70
     1
102
RTVSPropertyOp12
 70
     1
102
RTVSPropertyOp13
 70
     1
102
RTVSPropertyOp14
 70
     1
102
RTVSPropertyOp15
 70
     1
102
RTVSPropertyOp16
 70
     1
102
RTVSPropertyOp17
 70
     1
102
RTVSPropertyOp18
 70
     1
102
RTVSPropertyOp19
 70
     1
102
RTVSPropertyOp20
 70
     1
102
RTVSPropertyOp21
 70
     1
102
RTVSPropertyOp22
 70
     1
102
RTVSPropertyOp23
 70
     1
102
RTVSPropertyOp24
 70
     1
102
RTVSPropertyOp25
 70
     1
102
RTVSPropertyOp26
 70
     1
102
RTVSPropertyOp27
 70
     1
102
RTVSPropertyOp28
 70
     1
102
RTVSPropertyOp29
 70
     1
102
RTVSPropertyOp30
 70
     1
102
RTVSPropertyOp31
 70
     1
102
RTVSPropertyOp32
 70
     1
  0
XRECORD
  5
3F8
102
{ACAD_REACTORS
330
3F7
102
}
330
3F7
100
AcDbXrecord
280
     1
102
RTVSPropertyOp0
 70
     1
102
RTVSPropertyOp1
 70
     1
102
RTVSPropertyOp2
 70
     1
102
RTVSPropertyOp3
 70
     1
102
RTVSPropertyOp4
 70
     1
102
RTVSPropertyOp5
 70
     1
102
RTVSPropertyOp6
 70
     1
102
RTVSPropertyOp7
 70
     1
102
RTVSPropertyOp8
 70
     1
102
RTVSPropertyOp9
 70
     1
102
RTVSPropertyOp10
 70
     1
102
RTVSPropertyOp11
 70
     1
102
RTVSPropertyOp12
 70
     1
102
RTVSPropertyOp13
 70
     1
102
RTVSPropertyOp14
 70
     1
102
RTVSPropertyOp15
 70
     1
102
RTVSPropertyOp16
 70
     1
102
RTVSPropertyOp17
 70
     1
102
RTVSPropertyOp18
 70
     1
102
RTVSPropertyOp19
 70
     1
102
RTVSPropertyOp20
 70
     1
102
RTVSPropertyOp21
 70
     1
102
RTVSPropertyOp22
 70
     1
102
RTVSPropertyOp23
 70
     1
102
RTVSPropertyOp24
 70
     1
102
RTVSPropertyOp25
 70
     1
102
RTVSPropertyOp26
 70
     1
102
RTVSPropertyOp27
 70
     1
102
RTVSPropertyOp28
 70
     1
102
RTVSPropertyOp29
 70
     1
102
RTVSPropertyOp30
 70
     1
102
RTVSPropertyOp31
 70
     1
102
RTVSPropertyOp32
 70
     1
  0
XRECORD
  5
3FA
102
{ACAD_REACTORS
330
3F9
102
}
330
3F9
100
AcDbXrecord
280
     1
102
RTVSPropertyOp0
 70
     1
102
RTVSPropertyOp1
 70
     1
102
RTVSPropertyOp2
 70
     1
102
RTVSPropertyOp3
 70
     1
102
RTVSPropertyOp4
 70
     1
102
RTVSPropertyOp5
 70
     1
102
RTVSPropertyOp6
 70
     1
102
RTVSPropertyOp7
 70
     1
102
RTVSPropertyOp8
 70
     1
102
RTVSPropertyOp9
 70
     1
102
RTVSPropertyOp10
 70
     1
102
RTVSPropertyOp11
 70
     1
102
RTVSPropertyOp12
 70
     1
102
RTVSPropertyOp13
 70
     1
102
RTVSPropertyOp14
 70
     1
102
RTVSPropertyOp15
 70
     1
102
RTVSPropertyOp16
 70
     1
102
RTVSPropertyOp17
 70
     1
102
RTVSPropertyOp18
 70
     1
102
RTVSPropertyOp19
 70
     1
102
RTVSPropertyOp20
 70
     1
102
RTVSPropertyOp21
 70
     1
102
RTVSPropertyOp22
 70
     1
102
RTVSPropertyOp23
 70
     1
102
RTVSPropertyOp24
 70
     1
102
RTVSPropertyOp25
 70
     1
102
RTVSPropertyOp26
 70
     1
102
RTVSPropertyOp27
 70
     1
102
RTVSPropertyOp28
 70
     1
102
RTVSPropertyOp29
 70
     1
102
RTVSPropertyOp30
 70
     1
102
RTVSPropertyOp31
 70
     1
102
RTVSPropertyOp32
 70
     1
  0
XRECORD
  5
40E
102
{ACAD_REACTORS
330
40D
102
}
330
40D
100
AcDbXrecord
280
     1
102
RTVSPropertyOp0
 70
     1
102
RTVSPropertyOp1
 70
     1
102
RTVSPropertyOp2
 70
     1
102
RTVSPropertyOp3
 70
     1
102
RTVSPropertyOp4
 70
     1
102
RTVSPropertyOp5
 70
     1
102
RTVSPropertyOp6
 70
     1
102
RTVSPropertyOp7
 70
     1
102
RTVSPropertyOp8
 70
     1
102
RTVSPropertyOp9
 70
     1
102
RTVSPropertyOp10
 70
     1
102
RTVSPropertyOp11
 70
     1
102
RTVSPropertyOp12
 70
     1
102
RTVSPropertyOp13
 70
     1
102
RTVSPropertyOp14
 70
     1
102
RTVSPropertyOp15
 70
     1
102
RTVSPropertyOp16
 70
     1
102
RTVSPropertyOp17
 70
     1
102
RTVSPropertyOp18
 70
     1
102
RTVSPropertyOp19
 70
     1
102
RTVSPropertyOp20
 70
     1
102
RTVSPropertyOp21
 70
     1
102
RTVSPropertyOp22
 70
     1
102
RTVSPropertyOp23
 70
     1
102
RTVSPropertyOp24
 70
     1
102
RTVSPropertyOp25
 70
     1
102
RTVSPropertyOp26
 70
     1
102
RTVSPropertyOp27
 70
     1
102
RTVSPropertyOp28
 70
     1
102
RTVSPropertyOp29
 70
     1
102
RTVSPropertyOp30
 70
     1
102
RTVSPropertyOp31
 70
     1
102
RTVSPropertyOp32
 70
     1
  0
XRECORD
  5
404
102
{ACAD_REACTORS
330
403
102
}
330
403
100
AcDbXrecord
280
     1
102
RTVSPropertyOp0
 70
     1
102
RTVSPropertyOp1
 70
     1
102
RTVSPropertyOp2
 70
     1
102
RTVSPropertyOp3
 70
     1
102
RTVSPropertyOp4
 70
     1
102
RTVSPropertyOp5
 70
     1
102
RTVSPropertyOp6
 70
     1
102
RTVSPropertyOp7
 70
     1
102
RTVSPropertyOp8
 70
     1
102
RTVSPropertyOp9
 70
     1
102
RTVSPropertyOp10
 70
     1
102
RTVSPropertyOp11
 70
     1
102
RTVSPropertyOp12
 70
     1
102
RTVSPropertyOp13
 70
     1
102
RTVSPropertyOp14
 70
     1
102
RTVSPropertyOp15
 70
     1
102
RTVSPropertyOp16
 70
     1
102
RTVSPropertyOp17
 70
     1
102
RTVSPropertyOp18
 70
     1
102
RTVSPropertyOp19
 70
     1
102
RTVSPropertyOp20
 70
     1
102
RTVSPropertyOp21
 70
     1
102
RTVSPropertyOp22
 70
     1
102
RTVSPropertyOp23
 70
     1
102
RTVSPropertyOp24
 70
     1
102
RTVSPropertyOp25
 70
     1
102
RTVSPropertyOp26
 70
     1
102
RTVSPropertyOp27
 70
     1
102
RTVSPropertyOp28
 70
     1
102
RTVSPropertyOp29
 70
     1
102
RTVSPropertyOp30
 70
     1
102
RTVSPropertyOp31
 70
     1
102
RTVSPropertyOp32
 70
     1
  0
XRECORD
  5
40C
102
{ACAD_REACTORS
330
40B
102
}
330
40B
100
AcDbXrecord
280
     1
102
RTVSPropertyOp0
 70
     1
102
RTVSPropertyOp1
 70
     1
102
RTVSPropertyOp2
 70
     1
102
RTVSPropertyOp3
 70
     1
102
RTVSPropertyOp4
 70
     1
102
RTVSPropertyOp5
 70
     1
102
RTVSPropertyOp6
 70
     1
102
RTVSPropertyOp7
 70
     1
102
RTVSPropertyOp8
 70
     1
102
RTVSPropertyOp9
 70
     1
102
RTVSPropertyOp10
 70
     1
102
RTVSPropertyOp11
 70
     1
102
RTVSPropertyOp12
 70
     1
102
RTVSPropertyOp13
 70
     1
102
RTVSPropertyOp14
 70
     1
102
RTVSPropertyOp15
 70
     1
102
RTVSPropertyOp16
 70
     1
102
RTVSPropertyOp17
 70
     1
102
RTVSPropertyOp18
 70
     1
102
RTVSPropertyOp19
 70
     1
102
RTVSPropertyOp20
 70
     1
102
RTVSPropertyOp21
 70
     1
102
RTVSPropertyOp22
 70
     1
102
RTVSPropertyOp23
 70
     1
102
RTVSPropertyOp24
 70
     1
102
RTVSPropertyOp25
 70
     1
102
RTVSPropertyOp26
 70
     1
102
RTVSPropertyOp27
 70
     1
102
RTVSPropertyOp28
 70
     1
102
RTVSPropertyOp29
 70
     1
102
RTVSPropertyOp30
 70
     1
102
RTVSPropertyOp31
 70
     1
102
RTVSPropertyOp32
 70
     1
  0
ENDSEC
  0
EOF
